&title=Red Eyes
&artist=Cosmograph
&first=0.01
&des=草哥牛逼
&lv_5=7
&inote_5=(153)
{4},,,,{16}4h[16:1]/5h[16:1],,,,,
1b/7x^5[8:1],,,,,A4,A3,A2,A1,A8/5,,,6h[8:3]/7^2[8:1],,,,,,,,3/7-3[4:1],,,5,,,2,,,4,,,1-6[8:1],1-4[16:1],,,,,,,
8xb/2x^4b[8:1],,,,,,,5,5,,6,6,,{24}4,7,3,{16}5,2,6,4,8,
2h[8:1],,4,4h[8:1],,5,5h[8:1],,6,6h[8:1],,8,8,7,1,6,2,3,4,6,
(150)7,8,5,4,(120)3,1,7,5b,,,,,1h[48:1],,,{48},2h[48:1],,
(153){16},,,3h[48:1],7,5,,{48}A4/A6,D7`D4,A7`A3,D8`D3,A2`A8,D1`D2,{16}A1,,
2xh[8:1]/8xh[8:1],,,56,,,7,,7,3,5,,25,,34,,56,,74,,
2xh[8:1]/8xh[8:1],,,2,8,3,7,4,6,1,5,2,4,3,6,5,7,1,28,37,
6xh[8:1]/4xh[8:1],,,18,,,2,,2,6,4,,74,,65,,43,,25,,
1h[8:1],,8,8h[8:1],,7,7h[8:1],,6,6h[8:1],,5,7,{24}3,4,2,{16}6,8,7,1,,
7xh[8:1]/1xh[8:1],,,43,,,2,,2,6,4,,74,,65,,43,,25,,
7xh[8:1]/1xh[8:1],,,7,1,6,2,5,3,8,4,7,5,6,3,4,2,8,71,62,
3xh[8:1]/5xh[8:1],,,81,,,7,,7,3,5,,25,,34,,56,,74,,
8h[8:1],,1,1h[8:1],,2,2h[8:1],,3,3h[8:1],,4,2,{24}6,5,7,{16}3,1,2,8,4,
6bh[4:1],,5,,5,7,4,5h[8:1],,2,4h[8:1],,3,3,4,,2b/5,,2,5,3,4,,4,3,7,5,6,1^6[12:1]*^4[12:1],,46,,
1b,,,,4,6,3,4h[8:1],,2,6h[8:1],,1,1,6,,3bp7b[12:1]/7bp3b[12:1],,,,3b/7b,,,1xb/5xb,,,28,,7,3,6,4,
5,,3-5[12:1]/5,,2,,3,6x>2b[8:1],,,8,,7,7,,,1b-3^4[12:1]/6b^7-1[12:1],,,,1x/6x,,,5xbh[4:1],,,,1,
1,,73,3h[16:9]/7,,,2,,8,,6,,4,,43,,41,,47,,4bq1b[16:5],5p8[4:1],,,,,,,,,,,2,7,4,5,
1b^4b[8:1],,,,1/5b,6,7,8bxh[8:1],,{24}5,4,3,{16}2v5b[12:1],7,1,6,2,
8bV64b[32:5],,,,4b/8,3,2,1bxh[8:1],,{24}4,5,6,{16}7-3[12:1]b,3,8,4,7,
5b^2[8:1]b,,,,1b/5,8,7,6bxh[8:1],,{24}8,1,2,{16}3,7,4,6,2,
8b-4b[16:1],,8,1b-3[16:1],,1,5b-7[16:1],,5,4b,,4,,4,6,2,
8b^5b[8:1],,,,8/4b,3,2,1bxh[8:1],,{24}4,5,6,{16}7-4b[12:1],2,8,3,7,
1b,,5,,7x/3x,,2,1h[16:3]/6,,,8,,34,25,,7bh[16:3],,,8,1,2,3,4,5,1,8,7,6,3,4,2,5,
1b,,4b/6,,7b/8,,2b/5,,4b/3,,1b/7,,{48}A1/A7,D7`D2,A6`A2,D6`D3,A3`A5,D5`D4,{16}A4,,
{16}2x-8[8:1],,3,4,2,,5,,7h[8:1],,8,8,6,,2,,7-3[8:1],,3-5[8:1],,7,,1,,1b,,1,5,2,6,3,7,
4x^2[8:1],,5,6,4,,8,,8-4[8:1],,2,2,8,,1,,16,,A2,A3,A4,A5,A1,A8,A7,A6,3h[8:1],,4,2,6,3,
8b^5b[32:3],,,,8/4bq8b[8:1],,,2b,,2,,{16}1,1w5b[8:1],,,,
1b,,,,4x/6x,,3,2h[16:3]/5,,,6,,37,37,,1bh[16:3],,,8,,28,,38,,48,,58,,68,,78,,
(134)1xb,6,,34,,2xb,,(153)8,,{24}3b,7,4,{16}6,{32}A2,D2,A1f,D1,{16}A8,,
6xh[8:1],,E4,,6h[8:1],,E2,,6h[8:1],,E4,6,6,,E2,,17,,E4/A3,,1,7,E3/B3,,1,7,E4/A3,7,1,,8,,
7h[8:1],,D3,,7h[8:1],,D4,,7h[8:1],,D5,6,6,,4,,3h[8:1]/5h[8:1],,,1h[8:1]/6h[8:1],,,8h[8:1]/4h[8:1],,,3h[8:1]/5h[8:1],,,2,6,1,7,2,8,3,7,
4xh[8:1],,E6,,4h[8:1],,E8,,4h[8:1],,E6,3,3,,E8,,82,,E6/A6,,8,2,B6/E7,,8,2,E6/A6,2,8,,1,,
1,8,2,7,3,6,4,5,3,4,1,4,{24}1,6,3,{16}5,,8b,8b,,,{48}56,,,,,,,{16}1b,1b,,,3,7,4b/6,6b/4,,,
2bh[4:1],,4,,4,2,5,4h[8:1],,7,5h[8:1],,6,6,5,,7b/4,,7,4,6,5,,5,6,2,4,3,8^3[12:1]*^5[12:1],,53,,
8b,,,,5,3,6,5h[8:1],,7,3h[8:1],,8,8,3,,6bq2[12:1]`2bq6[12:1],,,,6b/2b,,,8xb/4xb,,,71,,2,6,3,5,
4,,6^4[12:1]/4,,7,,6,3x^4-6^8b[32:5],,,1,,2,2,,,4b-2^1[12:1]/7b^6-4[12:1],,,,4x/7x,,,8xbh[4:1],,,,4,
4,,26,6h[16:9]/2,,,7,,1,,3,,5,,56,,58,,52,,5b>1b[16:9],4<8[2:1],,,,,,,,,,,,,,,
{16}2h[4:1],,,,4,,,3h[16:5]/4h[16:5],,,,,,,,,7h[4:1],,,,8,,,56,,,,,,,,,
8h[4:1],,,,2,,,4,{24}7,6,5,{16}4,1,6,2,8,3,
5b,,5,4b/6,,2,3b/1,,7,8b/6,,3,5,1,6,4,
8b^5b[8:1],,,,8/4b,3,2,1bxh[8:1],,{24}4,5,6,{16}7v4b[12:1],2,8,3,7,
1bV35b[32:5],,,,5b/1,6,7,8bxh[8:1],,{24}5,4,3,{16}2-6[12:1]b,6,1,5,2,
4b^7[8:1]b,,,,8b/4,1,2,3bxh[8:1],,{24}1,8,7,{16}6,2,5,3,7,
1b-5b[16:1],,1,8b-6[16:1],,8,4b-2[16:1],,4,5b,,5,,5,3,7,
1b^4b[8:1],,,,1/5b,6,7,8bxh[8:1],,{24}5,4,3,{16}2-5b[12:1],7,1,6,2,
{48}8b,,,,,3,,,,,,{16}4x/6x,,8,8xh[16:3]/3,,,1,,65,74,,2bh[16:3],,,1,8,7,6,5,4,8,1,2,3,6,5,7,4,
8bh[16:1],,5bh[16:1]/3h[16:1],,2bh[16:1]/1h[16:1],,7bh[16:1]/4h[16:1],,5bh[16:1]/6h[16:1],,8bh[16:1]/2h[16:1],,{48}2b/8,7`3,4`6,5b,,,,,,,
{16}7x-1[8:1],,6,5,7,,4,,2h[8:1],,1,1,3,,7,,2-6[8:1],,6-4[8:1],,2,,8,,8b,,8,4,7,3,6,2,
5x^7[8:1],,4,3,5,,1,,1-5[8:1],,7,7,1,,8,,{24}8,4,8,4,8,4,{16}7,6,5,4,8,1,2,3,6,5,7,4,
{16}8b-4b[32:3],,,,8/3b<7b[8:1],,,2b,,2,,{16}1,1w5b[8:1],,,,
1b,,,,4x/6x,,3,2h[16:3]/5,,,6,,37,37,,1bh[16:3],,,8,,28,,38,,48,,58,,68,,78,,
{48}1,,,1,,,,,,7,,,3,,,,,,2/8,,,2/8,,,,,,8,,,2,,,6,,,,3/5,,,3q7q3b[8:7]/5,,,,,
{4}7b>7[2:3],,,,,,,,{32}4h[32:1]/5h[32:3],,,4,
