&title=Bon Appétit♡S
&artist=Blend A
&first=0
&des=Faratooo
&lv_5=13
&inote_5=(152){1},{16},,,,,{22},
{8},,1q5[8:1],,,,7q4[8:1],,,,1-5[8:1],1,,7-4[8:1],8,7,,,1-5[8:1]/2-5[8:1],1/2,,,3p6[8:1],3,,,5-1[8:1]/4-8[8:1],,5<4[3:1]/4>5[3:1],,5b/4b,,,,{16}3h[8:1]/5,,7,,4h[8:1]/6,,8,,3,4,,4,3,,82,,2-4[8:1],,6,,2-5[8:1],,7,,2-6[8:1],,8,,2>5[8:1],,1,,82,,6,,5/7h[8:1],,3,,2-5[8:1],1,,1,2,,6,,7-5[8:1],,,,7/8-4[8:1],,,,8/1-3[8:1],,,,1/8w4[8:1],,,,8,,,,7h[8:1]/2,,4,,6,5,,5,6,,5/7h[8:1],,2,,3,4,,4,3,,18,,2,6,4,,3>8[8:1]/5<8[8:1],,62,,,,,,6<1[8:1]/4>1[8:1],,73,,,,,,28,,,,87,6,,12,3,,5-8[8:1]/4-1[8:1],,,,,,,,
{16}4h[4:1]/5,,,,5,,4,5,4,,,,63,,63,,4/5h[4:1],,,,4,,5,4,5,,,,63,,63,,5h[4:1]/4h[4:1],,,,,,,,54,,,,63,,,,2,4,,3,5,,4,6,5,,7,,3,4,3,,52,,6,5,7,,3,4,2,,6,5,7,,3,4,2,,18,,7,8,7,8,7,,2,1,2,,3,,54,,6,5,7,,3,4,2,,18,,1,8,1,8,2b/7b,,,,,,,,
{16}27,,1,8,,,27,,6/3>7[4:1],,,,5,,,,4>6[3:1],,,,8,,,,2h[4:3],,,,5,,,,4h[4:1],,,,,,,,
{8}6<2[4:1]/3,,4,,5<3[3:1],,1,,7h[4:1],,6h[4:1],,5h[4:1],,4b,,
{16}2-5[8:1],1,,1,2,,18,,7-4[8:1],8,,8,7,,2,,7h[8:1]/5,,1,,2h[8:1]/4,,8,,2,4,3,5,4,6,5,7,1b-5[8:1],,,,7-3[8:1]/1,,,,72,,,,1,,82,,,,,,17,,,,86,,,13,,,54,,3qq5[4:3]/6pp4[4:3],,,,,,,,,,,,,,,,,,,,
{8}6/2,,3/7,,8/4,,
{16}1b/5b,,3,4,2,,15,,6,5,7,,13,,56,,3/8-4[8:1],,7,,8/2-5[8:1],,1,,2/7<4[8:1],,8,,7/1-5[8:1],,2,,16,,7,,42,,3,4,3,,2-5[8:1],,6,,7,,
{8}8-4[8:1],1,8/2-6[8:1],3,2/5-1[8:1],7,5/8,6,,1pp4[2:1],1,8,7,6,5,5V37[2:1],6,35,2,1,8,1h[4:1],6,5,,83,16,{16}7,8,7,,54,,2,1,2,,
{16}87,7,,12,2,,3,6,4-1[8:1]/5-8[8:1],,,,{36}54,,,,,,,,1-5[132#14:1]/8-4[132#14:1],27,36,45,,,,,,,
{16}18,,,12,38,,,87,16,,7,,
{8}8-4[8:1]/4,6,8/2-5[8:1],3,2/7p3[8:1],1,7/8q4[8:1],2,81,3,{16}2,1,2,,63,,4,5,4,,72,,{36}1h[12:1]/8,7,6,,,,,,,1h[12:1]/2,3,4,,,,,,,7/8h[12:1],6,5,,,,,,,8h[12:1]/1,2,3,4,5,6,7,8,1,
{8}2b/6b,3,52,{16}1,8,1-5[8:1],,7-3[8:1],,1,,7,,4b,,6,,74,,8,1,8-4[8:1],,2-6[8:1],,8,,2,,5b,,,,13,,,,86,,,7pp4[3:2]/2qq5[3:2],,,,,,,,,,,,,,,,,63,,2b/7b,,1h[4:1],,2,,3h[4:1],,4,,5h[4:1],,6,,7h[4:1],,8,,3,4,2,,28,,6,5,6,,47,,8b,,2,,
{62}8h[12:1]/3b,,4,,5,,,,,,,8h[12:1]/3b,,4,,5,,,,,,,8h[12:1]/3b,,4,,5,,,,
,{16},,52,,7,,1b,{62},,
1h[12:1]/6b,,5,,4,,,,,,,,1h[12:1]/6b,,5,,4,,,,,,,,1h[12:1]/6b<3[4:1],,5,,4,
{16},,,,,,,,,
{32}1,2,3,4,5,6,7,8,1,2,3,4,5,6,7,8,1,2,3,4,5,6,7,8,1,2,3,4,5,6,7,8,
{16}15,,,26,,,7<4[8:1]/3>8[8:1],,15,,73,,,,{24}15,26,37,4>1[8:1]/8<5[8:1],,,,,,4q8[8:1]/8q4[8:1],,,,,,4>1[8:1]/8<5[8:1],,,,,,48,,,,,,
{16}8pp3[2:1]/4pp7[2:1],,8/4,,,,,,,,,,,,4,5,1-3[8:1],,8-4[8:1],,1-5[8:1],,8-6[8:1],,1,,8,,1b,,{32},,,,{36},,,,3b/5b,4,,,,,,6b/2b,35,4,,,,,7b/1b,62,35,4,
{2},,E
