&title=円尾坂の仕立屋
&artist=mothy akuno
&first=1.53
&des_5=はるか★__ Kk
&lv_5=13+
&des=はるか★__ Kk
&inote_5=(90)
{8}2,,,3,
{8},,4h[8:1],B3/E4,B5/E5,4h[8:1],B3/E4,B5/E5,
{8}5h[8:1],B6/E6,B4/E5,4h[8:1],B3/E4,B5/E5,
{8}8h[8:1],B7/E8,B1/E1,8h[8:1],B7/E8,B1/E1,
{8}4h[8:1],B3/E4,B5/E5,4h[8:1],B3/E4,B5/E5,
{8}Ch[8:1],B2/E3/B3,E7/B7/B6,
{8}B2h[8:1]/E3h[8:1]/B3h[8:1],C,E7/B7/B6,
{8}B7h[8:1]/E7h[8:1]/B6h[8:1],C,E3/B2/B3,
{8}Ch[8:1],B2/E3/B3,E7/B7/B6,
{8}B2h[8:1]/E3h[8:1]/B3h[8:1],C,E7/B7/B6,
{8}B7h[8:1]/E7h[8:1]/B6h[8:1],C,E3/B2/B3,
{8}Ch[8:1],B2h[8:1]/E3h[8:1]/B3h[8:1],B7h[8:1]/E7hf[8:1]/B6h[8:1],,,,
{8}2-6[8:1],1,8,7-3[8:1],8,1,{8}2-6[8:1],1,8,7-3[8:1],3,2,
{8}1b-6[8:1]/2h[8:1],4h[8:1],1-4[8:1],3h[8:1],1-5[8:1],8h[8:1],1b,,
{24}35,,4,5h[8:1],,,
{8}B4/E5,E6/B6,
{8}7-3[8:1],8,1,2-6[8:1],1,8,{8}7-3[8:1],8,1,2-6[8:1],6,7,
{8}8b-3[8:1]/7h[8:1],5h[8:1],8-5[8:1],6h[8:1],8-4[8:1],1h[8:1],8b,,
{24}64,,5,4h[8:1],,,
{8}B5/E5,E4/B3,
{8}7V15[8:1]/8,5-7[8:1],47,3,2,1b/8,
{8}1>4[8:1],27,18,8<5[8:1],27,1b/8,
{8}2V84[8:1]/1,4-2[8:1],52,6,7,8b/1,
{8}8<5[8:1],72,81,1>4[8:1],72,8b/1,
{8}8-4[8:1],7,6-2[8:1],5,4-8[8:1],3,2-6[8:1],1,1-5[8:1],
{8}2,3-7[8:1],4,5-1[8:1],6,7w3[8:1],,3w7[8:1],,3x/5x,6x,7x,8bw4[8:1]b,2b/6b,8b,,
{16}6,7,8,,3,2,1,,1b/8b,,
{8}2b/7b,3b/6b,4b-8[8:1],5b-1[8:1],A4,A5,,
{16}2,3,4,,5,6,7,8,1-3[8:1],,8b-4[8:1],,1b-5[8:1],,8b-6[8:1],,A1f,,A8,,,,,,
{16}6,7,8,,3,2,1,,36,,27,,2qq5[4:1]/8pp5[4:1],,3b/7b,,2b/8b,,,,,,
{8}1/4-7[12:1]*^7[12:1],3,
{8}4-1[12:1]*^1[12:1],5,{8}4-7[12:1]*^7[12:1],3,,,
{16}1-3[8:1],,8b-4[8:1],,1b-5[8:1],,8b-6[8:1],,A1f,,A8,,
{8}5,4,4,B6/E6,B3/E4,5,B6/E6,B3/E4,4,B6/E6,B3/E4,
7h[4:1],B6/E6,B3/E4,5h[4:1],B6/E6,B3/E4,4h[4:1],B6/E6,B3/E4,2h[4:1],B6/E6,B3/E4,
7,8/B6/E6,8/B3/E4,8h[4:1],B6/E6,B3/E4,5,7/B6/E6,7/B3/E4,7h[4:1],B6/E6,B3/E4,5,B6/E6,B3/E4,
{16}5h[8:1],,,46,46,,4h[8:1]/6h[8:1],,,46,46,,5h[8:1]/3h[8:1],,,53,53,,4b,,
6,7,8,1,
{8}2,E5/B5,E4/B3,4,{16}6/E5/B5,7,8/E4/B3,1,
{8}2,E5/B5,E4/B3,4h[4:1],E5/B5,E4/B3,7h[4:1],E5/B5,E4/B3,
{16}2,1,8/E5/B5,7,{8}6/E4/B3,4,4h[4:1]/E5/B5,E4/B3,,{16}6/E5/B5,7,8/E4/B3,1,{8}2,E5/B5/4,E4/B3/4,6h[4:1],E5/B5,E4/B3,
2h[4:1],E5/B5,E4/B3,7,8/E5/B5,8/E4/B3,7h[4:1],E5/B5,E4/B3,2h[4:1],E5/B5,E4/B3,6h[4:1],E5/B5,1b,,,
{8}4h[8:1],B3/E4,B5/E5,4h[8:1],B3/E4,B5/E5,
{8}5h[8:1],B6/E6,B4/E5,4h[8:1],B3/E4,B5/E5,
{8}8h[8:1],B7/E8,B1/E1,8h[8:1],B7/E8,B1/E1,
{8}Ch[8:1],B2/E3/B3,E7/B7/B6,
{8}B2h[8:1]/E3h[8:1]/B3h[8:1],C,E7/B7/B6,
{8}B7h[8:1]/E7h[8:1]/B6h[8:1],C,E3/B2/B3,
{8}Ch[8:1],B2/E3/B3,E7/B7/B6,
{8}B2h[8:1]/E3h[8:1]/B3h[8:1],C,E7/B7/B6,
{8}B7h[8:1]/E7h[8:1]/B6h[8:1],C,E3/B2/B3,
{8}B2h[8:1]/E3h[8:1]/B3h[8:1],C,E7/B7/B6,
{8}Ch[8:1],B2h[8:1]/E3h[8:1]/B3h[8:1],B7h[8:1]/E7hf[8:1]/B6h[8:1],
E,
E
