&title=ANiMA
&artist=xi
&first=0.04
&des=The Advanced Wonton
&lv_6=14+
&des_6=The Advanced Wonton
&inote_6=
(183.5){4},,,,{1}2h[1:1],
6h[1:2],
A2h[1:1]/E3h[1:1]/E2h[1:1],
{4},4,5,6,
{1}7h[1:1],
{2}3h[1:2],6,
{1}E8h[1:1]/A7h[1:1]/E7h[1:1],
{4},5,4,3,
{8}Cf/B6h[1:1]/B7h[1:1],,,,,4,3,2,
1h[8:7],,,,,4,5,6,
{2}C/B2h[4:3]/B3h[4:3],6h[4:1],
Cf/B7h[4:1]/B6h[4:1]/E7h[4:1],C/B2h[4:1]/B3h[4:1]/E3h[4:1],
{4}6/5,{16}4,3,2,1,7,6,5,4,8,1,2,3,
{4}4/Cf,{16}8,7,6,5,{4}4/8h[4:1],{16}3,4,5,6,
{4}7/Cf,{16}1,8,1,8,1,8,1,8,1,8,1,8,
{4}7/2,7/2,{8}6/3,5-8[8:1]/4-1[8:1],6/3,5/4,
{16},,,,,,,,1,2,3,4,1,8,7,6,
{8}5/2,3,4,5/2,3,4,5/2,1,
2/5,3/6,{4}7-5v8[4:1]/4-2[8:1],7/4,1,
{8}4/7,6,5,4/7,6,5,4/7,8,
7/4,6/3,{4}2-4v1[4:1]/5-7[8:1],2/5,8,
{8}7/2,1,8,7/2,1,8,2/7,6,
3/4,4/5,{4}6V84[4:1]/5-2[8:1],6/5,1,
{8}3b/6b,5,4,3b/6b,5,4,6b/3b,2,
7/8,8/1,{4}1/2,{16}8,7,6,5,8,1,2,3,
{8}4/7,{16}6,5,{8}6,{16}4,5,{8}4,6,{16}3,4,2,4,
{4}1>4[8:1],{24}5,6,7,8h[4:1],{48},,,,,,,,,,,,,,,,{16}4,6,3,5,
{4}2h[8:1],{16}5,3,6,4,{4}7h[8:1],3-8[8:1],
3/6-1[8:1],6/4-1[8:1],4/5-8[8:1],{16}1x/5,2,3,4,
{4}5b-2b[8:1],5b/7b-4b[8:1],7b/3b-8b[8:1],{16}8,7,6,5,
{4}4b-7b[8:1],4b/2b-5b[8:1],2b/6b-1b[8:1],{16}1,2,3,4,
{8}5b,{16}8,4,7,3,6,2,{8}5-8[8:1],1-4[8:1],5,1,
7,{16}1,8,1,7,2,7,{8}2,{16}8,1,{8}8,7/2,
{4}4/5h[4:1],{12}3,3,3,1,1,1,7,7,7,
{4}5V72[4:1],2V47[4:1],7V14[4:1],4,
{8}2,{16}3,4,3,5,2,5,{8}2,{16}6,5,6,4,7,4,
{4}7V51[4:1],{16}8,1,2,3,{4}4,7/2,
5/4h[4:1],{12}6,6,6,8,8,8,2,2,2,
{4}4V27[4:1],7V52[4:1],2V85[4:1],5,
{8}7,{16}6,5,6,4,7,4,{8}7,{16}3,4,3,5,2,5,
{4}1bh[4:1],{32}8,7,6,5,4,3,2,1,{8}8h[8:1],{32}2,3,4,5,{8}7h[8:1],2h[8:1],
{4}5bh[8:1],{12}3,8,2,{4}1v4[8:1],{8}1/7,7,
5-8[8:1],6,5/4-1[8:1],3,4/7v4[8:1],8,7/2,1,
{4}3h[8:1],{12}6,1,7,{4}8v5[8:1],{8}8/2,2,
4-1[8:1],3,4/5-8[8:1],6,5/2v5[8:1],1,2/6,7,
{4}8h[8:1],{12}2,5,3,{4}4v1[8:1],{8}4/6,6,
8-5[8:1],7,8/1-4[8:1],2,1/6v1[8:1],5,6/3v8[8:1],4,
3/7,6,5,4,6/3,7,8,{16}2,1,
3,8,3,8,4,7,4,7,5,6,5,6,{32}3,2,1,8,7,6,5,4,
{8}1-5[8:1],1,8-4[8:1],8,7-3[8:1],7,2-6[8:1],2,
1-5[8:1],1,8-4[8:1],8,6-2[8:1],6,3-7[8:1],3,
8-4[8:1],8,8/1-5[8:1],1,1/7-4[8:1],7,7/2-5[8:1],2,
2/1,{24}1,8,7,{8}6h[8:1],4,{16}7,3,8,2,{4}1h[4:1],
B3h[8:1],B4h[8:1],B5h[8:1],B6h[8:1],
B7h[8:1],B8h[8:1],B1h[8:1],B2h[8:1],
Cf/B3h[8:1],B4h[8:1],B5h[8:1],B6h[8:1],
B7h[8:1],B8h[8:1],B1h[8:1],B2h[8:1],
{16}8,7,6,5,1-5[8:1],2,3,4,{2}1/Cf,
{16}1,2,3,4,8-4[8:1],7,6,5,{2}8/Cf,
{16}1,2,3,4,8,7,6,5,{32}A1f,A2,A3,A4,,,,,A8f,A7,A6,A5,,,,,{16}1,
2,3,4,5/1,6,7,8,1/5,2,3,4,5/1,6,7,8,
{4}1/Cf,{8}3h[8:1],4h[8:1],{4}2h[4:1],7h[1:1],
B1h[8:1],B2h[8:1],B3h[8:1],B4h[8:1],
7/Cf,{8}6h[8:1],5h[8:1],{4}7h[4:1],2h[1:1],
B8h[8:1],B7h[8:1],B6h[8:1],B5h[8:1],
{16}2,1,3,8,2v5[8:1],1,3,8,{4}2/Cf,6/4,
{16}7,8,6,1,7v4[8:1],8,6,1,{4}7/Cf,5/3,
{16}1,8,1,8,1,8,1,8,{8}2/7,2/7,3/6,6/3,
{16}4,5,4,5,4,5,4,5,{8}6/3,3/6,7/2,2/7,
1b/8b,8b/1b,{16}3,4,{8}3,8b/1b,1b/8b,{16}6,5,{8}6,
8b/1b,1b/8b,{16}4,5,{8}4,2b-5[8:1]/1b-6[8:1],8/3,{4}2b/1b,
{8}4b/3b,4b/3b,{16}8,1,{8}8,5b/6b,5b/6b,{16}1,8,{8}1,
5b/4b,5b/4b,{16}2,1,{8}2,7b-4[8:1]/8b-3[8:1],1/6,{4}7b/8b,
{8},,4,5,{16}4,5,4,5,4,5,4,5,
{8}4h[2:1],{16}6,7,8,1,2,3,{32}5,6,7,8,1,2,3,4,5,6,7,8,1,2,3,4,
{8}5,8/2,7/3,{16}4,5,{8}3,{16}6,5,7,4,8,3,
{8}1,4/7,{16}6,5,7,4,{8}8,{16}2,1,3,8,4,7,
{8}5,6/4,{12}7/3,2,8,{6}1h[6:1],4h[6:1],3h[6:1],
{8}4,5/2,1/6,7/8,{32}6,5,4,3,2,1,8,7,{4}6/4,
{8}2-5[8:1],2,2/7-4[8:1],7,7/3>8[8:1],3,3/6-1[8:1],6,
6/2-5[8:1],2,2/7<4[8:1],7,7/3-8[8:1],3,3/6,6,
{4}7/2,{12}1/5,1/5,1/5,2/6,2/6,2/6,3/7,3/7,3/7,
{24}2,1,2,1,2,1,3,8,3,8,3,8,4,7,4,7,4,7,5,6,5,6,5,6,
{4}4b>1[32:3],{32}8,7,6,5,8,7,6,5,{4}4b<7[32:3],{32}8,1,2,3,8,1,2,3,
{1}4bw8[4:7],
E
