&title=[踊]オーバーライド
&artist=吉田夜世
&first=0.04
&des_1=Tetoのように踊ろう
&des_2=Tetoのように踊ろう
&des_3=Tetoのように踊ろう
&des_4=Tetoのように踊ろう
&des_5=MK: Tetoのように踊ろう
&lv_5=13?
&des_6=Tetoのように踊ろう
&des_7=Tetoのように踊ろう
&des=Tetoのように踊ろう
&inote_5=(204)
{4}
,
E7,E3,B8,B1,8b>4p8[2:1],,,Cf,
{48}
4bx,3x,2x,,,,,,,,,,4x,3x,2x,,,,,,,,,,4x,3x,2x,,,,,,,,,,4x,3x,2x,,,,,,,,,,4x,3x,2x,,,,,,,,,,4x,3x,2x,,,,,,,,,,4x,3x,2x,,,,,,,,,,4x,3x,2x,,,,,,,,,,4x,3x,2x,,,,,,,,,,4x,3x,2x,,,,,,,,,,4x,3x,2x,,,,,,,,,,4x,3x,2x,,,,,,,,,,4x,3x,2x,,,,,,,,,,4x,3x,2x,,,,,,,,,,4x,3x,2x,,,,,,,,,,4x,3x,2x,,,,,,,,,,
1bx,2x,3x,4x,,,,,,,,,1x,2x,3x,4x,,,,,,,,,1x,2x,3x,4x,,,,,,,,,1x,2x,3x,4x,,,,,,,,,1x,2x,3x,4x,,,,,,,,,1x,2x,3x,4x,,,,,,,,,1x,2x,3x,4x,,,,,,,,,1x,2x,3x,4x,,,,,,,,,1x,2x,3x,4x,,,,,,,,,1x,2x,3x,4x,,,,,,,,,1x,2x,3x,4x,,,,,,,,,1x,2x,3x,4x,,,,,,,,,1x,2x,3x,4x,,,,,,,,,1x,2x,3x,4x,,,,,,,,,1x,2x,3x,4x,,,,,,,,,1x,2x,3x,4x,,,,,,,,,
{4}
5x<8[2:1],,1<6[2:1],,5<8[2:1],,1<6[2:1],,5<8[2:1],,1<6[2:1],,4<1[2:1],,1<4[2:1],,4<1[2:1],,1<4[2:1],,4<2[2:1],,2<3[2:1],,3<2[2:1],,2<3[2:1],,,,8-4b[8:1],
{24}
B8,C,B4,A4,,,
{4}
1x-3>2-4b[2:1],,5-3<4-2[2:1],,1-3>2-4b[2:1],,5-3<4-2[2:1],,1-3>2-4b[2:1],,5-3<4-2[2:1],,1-3>2-4b[2:1],,5-3<4-2[2:1],,1-3>2-4>3-5b[1:1],,7x,,6-4<5-3<4-2[1:1],,7x,,1-3>2-4>3-5b[1:1],,7x,,6-4<5-3<4-2[1:1],,7x,,
{8}
1<5[2:1],,,5,5>1[2:1],,,1,1<5[2:1],,,5,5>1[2:1],,,,1V35b[2:1],,,5,5V71b[2:1],,,1,1V35b[2:1],,,5,5V71b[2:1],,,,
1>3[4:1],,3<5[4:1],,5<7[4:1],,7>1[4:1],,1V75b[4:1],,5V31b[4:1],,,,
8h[4:1],,5w1b[34#64:1],,,4h[8:1]/6h[8:1],,,,5/2,5<8[8:1]/2>5[8:1],,5-1[8:1]/2,,
{16}
5bx,Cf,,,,,,,
{8}
3bh[8:1]/6bh[8:1],,3h[8:1]/6h[8:1],,3h[8:1]/6h[8:1],,3h[8:1]/6h[8:1],,B2/B3/B5/B6,,B2/B3/B5/B6,,B2/B3/B5/B6,,B2/B3/B5/B6,,
3h[8:1]/6h[8:1],,3h[8:1]/6h[8:1],,3h[8:1]/6h[8:1],,3h[8:1]/6h[8:1],,B2/B3/B5/B6,,B2/B3/B5/B6,,B2/B3/B5/B6,,B2/B3/B5/B6,,
3h[8:1]/6h[8:1],,3h[8:1]/6h[8:1],,3h[8:1]/6h[8:1],,3h[8:1]/6h[8:1],,B2/B3/B5/B6,,B2/B3/B5/B6,,B2/B3/B5/B6,,B2/B3/B5/B6,,
3h[8:1]/6h[8:1],,3h[8:1]/6h[8:1],,3h[8:1]/6h[8:1],,3h[8:1]/6h[8:1],,B2/B3/B5/B6,,B2/B3/B5/B6,,B2/B3/B5/B6,,B2/B3/B5/B6,,
2bh[8:1]/5bh[8:1],,2h[8:1]/5h[8:1],,3h[8:1]/6h[8:1],,3h[8:1]/6h[8:1],,B2/B3/B5/B6,,B4/B3/B7/B6,,B2/B3/B5/B6,,B4/B3/B7/B6,,
4h[8:1]/7h[8:1],,4h[8:1]/7h[8:1],,3h[8:1]/6h[8:1],,3h[8:1]/6h[8:1],,B4/B3/B7/B6,,B2/B3/B5/B6,,B4/B3/B7/B6,,B2/B3/B5/B6,,
2h[8:1]/5h[8:1],,2h[8:1]/5h[8:1],,3h[8:1]/6h[8:1],,3h[8:1]/6h[8:1],,B2/B3/B5/B6,,B4/B3/B7/B6,,B2/B3/B5/B6,,B4/B3/B7/B6,,
4h[8:1]/7h[8:1],,4h[8:1]/7h[8:1],,3h[8:1]/6h[8:1],,3h[8:1]/6h[8:1],,B4/B3/B7/B6,,B2/B3/B5/B6,,B4/B3/B7/B6,,B2/B3/B5/B6,,
{48}
1bx,2x,3x,,,,,,,,,,1x,2x,3x,,,,,,,,,,1x,2x,3x,,,,,,,,,,1x,2x,3x,,,,,,,,,,1x,2x,3x,,,,,,,,,,1x,2x,3x,,,,,,,,,,1x,2x,3x,,,,,,,,,,1x,2x,3x,,,,,,,,,,1x,2x,3x,,,,,,,,,,1x,2x,3x,,,,,,,,,,1x,2x,3x,,,,,,,,,,1x,2x,3x,,,,,,,,,,1x,2x,3x,,,,,,,,,,1x,2x,3x,,,,,,,,,,1x,2x,3x,,,,,,,,,,1x,2x,3x,,,,,,,,,,
5bx,4x,3x,2x,,,,,,,,,5x,6x,7x,8x,,,,,,,,,5x,4x,3x,2x,,,,,,,,,5x,6x,7x,8x,,,,,,,,,5x,4x,3x,2x,,,,,,,,,5x,6x,7x,8x,,,,,,,,,5x,4x,3x,2x,,,,,,,,,5x,6x,7x,8x,,,,,,,,,5x,4x,3x,2x,,,,,,,,,5x,6x,7x,8x,,,,,,,,,5x,4x,3x,2x,,,,,,,,,5x,6x,7x,8x,,,,,,,,,5x,4x,3x,2x,,,,,,,,,5x,6x,7x,8x,,,,,,,,,5x,4x,3x,2x,,,,,,,,,5bx>5b[1:2],6x,7x,8x,,,
{8}
,,,,,,,,,,,,,,,5?>5b[1:2],,,,,,,,,,,,,,,,5?>5b[1:2],,,,,,,,,,,,,,,,5?>5b[1:2],,,,,,,,,,,,,,,,5?>5b[1:2],,,,,,,,,,,,,,,,5?>5b[1:2],,,,,,,,,,,,,,,,5?>5b[1:2],,,,,,,,,,,,,,,,,,
4bh[1:2],,,,,,,,,,,,,,,,,,,,,,,
3b/B6/E6/D6f,2b/B5/E5/D5f,1b/B4/E4/D4f,8b/B3/E3/D3f,8b/B2/E2/D2f,8b/B1/E1/D1f,,,,
2bh[8:1]/5bh[8:1],,4h[8:1]/7h[8:1],,2h[8:1]/5h[8:1],,4h[8:1]/7h[8:1],,B4/E4/B8/E8,,B2/E2/B6/E6,,B4/E4/B8/E8,,B2/E2/B6/E6,,
2h[8:1]/5h[8:1],,4h[8:1]/7h[8:1],,2h[8:1]/5h[8:1],,4h[8:1]/7h[8:1],,B4/E4/B8/E8,,B2/E2/B6/E6,,B4/E4/B8/E8,,B2/E2/B6/E6,,
2h[8:1]/5h[8:1],,4h[8:1]/7h[8:1],,2h[8:1]/5h[8:1],,4h[8:1]/7h[8:1],,B4/E4/B8/E8,,B2/E2/B6/E6,,B4/E4/B8/E8,,B2/E2/B6/E6,,
2h[8:1]/5h[8:1],,4h[8:1]/7h[8:1],,2h[8:1]/5h[8:1],,4h[8:1]/7h[8:1],,B4/E4/B8/E8,,B2/E2/B6/E6,,B4/E4/B8/E8,,B2/E2/B6/E6,,
3bh[8:1]/6bh[8:1],,3h[8:1]/6h[8:1],,3h[8:1]/6h[8:1],,3h[8:1]/6h[8:1],,B2/B3/B5/B6,,B2/B3/B5/B6,,B2/B3/B5/B6,,B2/B3/B5/B6,,
2bh[8:1]/5bh[8:1],,2h[8:1]/5h[8:1],,3h[8:1]/6h[8:1],,3h[8:1]/6h[8:1],,B2/B3/B5/B6,,B4/B3/B7/B6,,B2/B3/B5/B6,,B4/B3/B7/B6,,
4bh[8:1]/7bh[8:1],,4h[8:1]/7h[8:1],,3h[8:1]/6h[8:1],,3h[8:1]/6h[8:1],,B4/B3/B7/B6,,B2/B3/B5/B6,,B4/B3/B7/B6,,B2/B3/B5/B6,,
2bh[8:1]/5bh[8:1],,4h[8:1]/7h[8:1],,2h[8:1]/5h[8:1],,4h[8:1]/7h[8:1],,B4/E4/B8/E8,,B2/E2/B6/E6,,B4/E4/B8/E8,,B2/E2/B6/E6,,
Ch[4:15]/E3/E7,,E3/E7,,E3/E7,,E3/E7,,E3/E7,,E3/E7,,E3/E7,,E3/E7,,E3/B2/E7/B7,,E3/B2/E7/B7,,E3/B2/E7/B7,,E3/B2/E7/B7,,E3/B2/E7/B7,,E3/B2/E7/B7,,E3/B2/E7/B7,,E3/B2/E7/B7,,
{16}
3x,4x,2x,,,,5/6,,5h[8:1]/6h[8:1],,,,1h[8:1]/2h[8:1],,,,
6,5,7,,,,4/3,,4h[8:1]/3h[8:1],,,,8h[8:1]/7h[8:1],,,,
3,5,1,,6,4,8,,1hx[16:1]/3hx[16:1],,5hx[16:1]/7hx[16:1],,8hx[16:1]/6hx[16:1],,4hx[16:1]/2hx[16:1],,
7,1,5,,2,8,4,,5hx[16:1]/6hx[16:1],,8hx[16:1]/2hx[16:1],,4hx[16:1]/3hx[16:1],,7hx[16:1]/2hx[16:1],,
{16}
1bhx[8:1]/6bhx[8:1],,,2x/7x,3x/8x,,,,8h[8:1]/3h[8:1],,,7x/2x,6x/1x,,,,B3f/B4/B5/B6,,,,B3/B4f/B5/B6,,,,B3/B4/B5f/B6,,,,B3/B4/B5/B6f,,,,
8h[8:1]/3h[8:1],,,7x/2x,6x/1x,,,,1h[8:1]/6h[8:1],,,2x/7x,3x/8x,,,,B6f/B5/B4/B3,,,,B6/B5f/B4/B3,,,,B6/B5/B4f/B3,,,,B6/B5/B4/B3f,,,,
{32}
1bh[8:1]/5bh[8:1],,,,,,2x/6x,3x/7x,4hx[8:1]/8hx[8:1],,,,,,3x/7x,2x/6x,1hx[8:1]/5hx[8:1],,,,,,2x/6x,3x/7x,4hx[8:1]/8hx[8:1],,,,,,,,B1/B2/E2f/B5/B6/E6,,,,,,,,B4/B3/E4f/B8/B7/E8,,,,,,,,B1/B2/E2/B5/B6/E6f,,,,,,,,B4/B3/E4/B8/B7/E8f,,,,,,,,
8h[8:1]/4h[8:1],,,,,,7x/3x,6x/2x,5hx[8:1]/1hx[8:1],,,,,,6x/2x,7x/3x,8hx[8:1]/4hx[8:1],,,,,,7x/3x,6x/2x,5hx[8:1]/1hx[8:1],,,,,,,,B8/B7/E8f/B4/B3/E4,,,,,,,,B5/B6/E6f/B1/B2/E2,,,,,,,,B8/B7/E8/B4/B3/E4f,,,,,,,,B5/B6/E6/B1/B2/E2f,,,,,,,,
{48}
1bx,2x,3x,4x,,,,,,,,,1x,8x,7x,6x,,,,,,,,,1x,2x,3x,4x,,,,,,,,,1x,8x,7x,6x,,,,,,,,,1x,2x,3x,4x,,,,,,,,,1x,8x,7x,6x,,,,,,,,,1x,2x,3x,4x,,,,,,,,,1x,8x,7x,6x,,,,,,,,,1x,2x,3x,4x,,,,,,,,,1x,8x,7x,6x,,,,,,,,,1x,2x,3x,4x,,,,,,,,,1x,8x,7x,6x,,,,,,,,,1x,2x,3x,4x,,,,,,,,,1x,8x,7x,6x,,,,,,,,,1x,2x,3x,4x,,,,,,,,,1x,8x,7x,6x,,,,,,,,,
5bx,4x,3x,,,,,,,,,,4x,5x,6x,,,,,,,,,,5x,4x,3x,,,,,,,,,,4x,5x,6x,,,,,,,,,,5x,4x,3x,,,,,,,,,,4x,5x,6x,,,,,,,,,,5x,4x,3x,,,,,,,,,,4x,5x,6x,,,,,,,,,,5x,4x,3x,,,,,,,,,,4x,5x,6x,,,,,,,,,,5x,4x,3x,,,,,,,,,,4x,5x,6x,,,,,,,,,,5x,4x,3x,,,,,,,,,,4x,5x,6x,,,,,,,,,,5x,4x,3x,,,,,,,,,,4x,5x,6x,,,,,,,,,,
Cf,
E
