&title=iLLness LiLin
&artist=かねこちはる
&first=0.93
&des=speckles
&lv_5=14+
&inote_5={4}(280)B7/B6/B2/B3/B8/B1/B5/B4/Ch[4:7],{1},{4},,,{16}8x,
7x,6x,5x,4,3,2,1,8,7,6,5,4,3,2,1,
8,4x,8x,4x,8x,4x,8x,4x,{2}8/Cf,
{4}2h[4:1],{8}6,3,{4}7h[4:1],4h[4:1],
{8}6,3,{4}8h[4:1],1h[4:1],{8}7,2,
{4}6h[4:1],4h[4:1],{8}5,3,{4}7h[4:1],
4h[4:1],{8}6,1,{4}8h[4:1],2h[4:1],
{2}7h[4:1],{8}4,6,{4}2h[4:1],
5h[4:1],{8}3,7,{4}2h[4:1],6h[4:1],
{8}3,7,{4}1h[4:1],8h[4:1],{8}3,6,
{16}4,5,4,5,{8}4,{16}6,3,6,3,{8}6,{16}4,5,4,5,
{4}4,{8}2/8-6[16:1],2,{4}8/2,4,
{8}7/1-3[16:1],7,{4}7/1,5,{8}3/5-7[16:1],3,
{4}5/3,1,{8}6/4-2[16:1],6,{4}6/4,
8,{8}2/6-4[16:1],2,{4}6/2,3,
{8}4/2-8[16:1],4,{4}4/2,{8}6,5,{4}4h[8:1]/7h[8:1],
8/4h[8:1],{8}8,1,{4}2h[8:1]/7h[8:1],1/7h[8:1],
{16}1,2,3,4,5,6,7,8,1,2,3,4,5,6,7,8,
1,5,1,5,1,5,1x,5x,1x,5x,1x,5x,{4}1bx,
8b/2h[4:1],{8}7,7,{4}2h[4:1],6h[4:1],
{8}3,4,{4}7h[8:1],8h[4:1]/2h[4:1],{16}7,6,{8}5,
5xh[8:1],2,5h[8:1],4,5h[8:1],3,5h[8:1],3,
3/6,7/4,{4}4h[4:1]/7h[4:1],,7-5[16:1]/4-2[16:1],
7b/4b,{8}1x,2,3,4,{4}5-3[16:1]/1-7[16:1],
{2}1p5[8:1]/5p1[8:1],{4}Ch[4:1],B7/B6f,
{8}1xh[8:1],6x,1h[8:1],7,1h[8:1],8,1h[8:1],5,
{16}1x,2x,3x,4,5/8,7,6,5,4,3,2,1,8/4x,7/3,6/2,5/1,
{4}8/4b-7[16:1],2x/4bx,8-3[16:1],6/8b,
7<3[4:1],7b,Ch[4:1],B5/B4,
{8}7xh[8:1],4x,7h[8:1],3,7h[8:1],2,7h[8:1],1,
{4}6,{8}3/7,3/7,3/7,3/7,{4}7h[8:3]/3h[8:3],
,B7/Cf/B3,2xh[4:1],B7/A7/A6/B6,
3h[4:1],B5/A5/B4/A4,Ch[4:1],B8/B1,
3h[8:1],{16}8/3xh[8:1],7,{8}6,{4}3xh[8:1],{16}8/3xh[8:1],7,{8}6,
{16}3x,2x,1x,8,7,6,5,4,3,2,1,8,7,6,5,4,
{8}3b,8,2,7,3,6,4,5b,
2,6,1,7,6,5,4,3,
{4}2/8h[4:1],3,{8}6/3h[4:1],7,{4}7,
2/6h[4:1],4,7/4h[4:1],6,
{8}8h[8:1],2,8h[8:1],2,8h[8:1],3,8h[8:1],3,
{4}7h[8:1]/1h[8:1],1h[8:1]/8h[8:1],{16}8x/1,7x,6,5,4,3,2,1,
{8}8b,4,6,3,7,2,8,1b,
6,2,5,3,2,1,8,7,
6b/4-2[16:1],6x,{4}4x/6x,{8}7x/1-3[16:1],7x,{4}7/1x,
{8}4x/6x,4,{16}4x,3,2,1,{4}D7h[4:1],B7/B6,
{16}3x,5x,3x,5x,{4}3,{8}2,2,8/2,8,
{16}8x,7x,6x,5,4,3,2,1,8x,4x,5x,6x,7,8,1,2,
{8}3b/5-7[16:1],3x,{4}3x/5x,{8}2/8-6[16:1],2,{4}2/8x,
{8}3/5x,5,{16}5,6,7,8,{4}D3h[4:1],B2/B3,
{16}8x,1x,8x,1x,{8}8,2/7,{16}3x,6,3,6,{4}3,
{16}7,4,7,4,{4}7,{8}1h[8:1],8h[8:1],1h[8:1],8h[8:1],
2b,2,7,3,{4}3/7h[4:1],{8}5,4,
3,2,{4}7/1h[4:1],{8}8,7,6,5,
{4}1/4h[4:1],{8}8,1,2,3,{4}6/4h[4:1],
{8}5,6,7,8,{4}1h[4:1],{8}5,4,
3/6x,7,2/8,3,7/4,6,5/3,2,
1/7,6,3/5h[4:1],2,1,6,7,8,
4/1h[4:1],3,2,8,7,6,{4}5/2h[4:1],
{8}8h[8:1],1h[8:1],8h[8:1],1h[8:1],6h[8:1],4h[8:1],6h[8:1],4h[8:1],
{4}8b,B2,B6,E4,
{8},E8/B7,E2/B2,C,,E8,B7,B6,
{4}E6/E2,B3/C,{8}B7/B8,{4},{8}C,
A1,A2,A3,A4,E1,E8,E7,E6,
{2}E5/C,{8}B7,B6,{4}B5,
C/B4,{8}E2,B2,B3,E4,{4}B4/C,
1bx/B6/E7/D7/E6/D6/A6f,1,1,1,
7b/A3f/D3/E3/B3/E4/D4,{8}7,2,{4}7,7,
4b/A7f/D8/E8/B7/E7/D7,4,4,4,
6b/3,{8}5,4,{4}5,6/3,
{16}1b/6,2,3,4,5,6,7,8,1,2,3,4,5,6,7,8,
1/5x,4x,3x,2,1,8,7,6,5,2,1,8,7,6,5,4,
{1}3b/E8h[1:1],
{8}E7f/B6f/E2,B2,B3,E4,A1,E1,{4}B8,
{16}4b,3,2,1,8,7,6,5,4,3,2,1,8,7,6,5,
4/8,1,2,3,4,5,6,7,8,3,4,5,6,7,8,1,
{1}2b/E6h[1:1],
{8}E7f/B7f,C,{4}B4,{8}A1,E2,{4}B2,
{16}8b,7,6,5,4,3,2,1,8,7,6,5,4,3,2,1,
8/4,5,6,7,8,1,2,3,4,7,8,1,2,3,4,5,
{1}6b/E2h[1:1],
{8}E3f/B3f/E8,B7,B6,E6,{16}A1,E2,B2,B3,{4},{16}5b,
6,7,8,1,2,3,4,5,6,7,8,1,2,3,4,
5/1,8,7,6,5,4,3,2,1,6,5,4,3,2,1,8,
{1}7b/E4h[1:1],
E3f/B2f/8b-4[0.8571##0.1071],
{4}8b,{8}2-5[8:1],2,7-4[8:1],7,3-1[8:1],3,
6-8[8:1],6,{4},{8}3-5[8:1]/1x-6[8:1],3/1x,{4}3/1x,
,{16}1/5,2/6,{8}3/7,{4}3h[8:1]/7h[8:1],5h[8:1]/1h[8:1],
{16}6x,5x,2x,3x,6x,5x,2x,3x,6x,5x,2x,3x,4x,5x,6x,7x,
{8}8bx-4[8:1],6x,8>3[8:1],6x,8v3[8:1],6x,{4}8,
7,2x/7,{8}6x,6,{4}2/6-1[8:1],
{16}6b/1,2,3,4,{4}5-1[8:1],{2}5-7[8:1]*-3[8:1],
{16}1x,8x,1x,8x,1x,8x,1x,8x,{2}1b-5[0.4286##0.1071],
{4}1b,{8}8-6[8:1],8,4-2[8:1],4,8-5[8:1],8,
1-3[8:1],1,7-4[8:1],7,1-4[8:1],1,{4},{8}8-6[8:1],
1-3[8:1],8-4[8:1],1-5[8:1],8x,1x,{4},{8}3-1[8:1],
4-6[8:1],3-7[8:1],4-8[8:1],3x,4x,{4},{16}1,
5x,1x,5x,2x,6x,2x,6x,3x,7x,3x,7x,4x,8x,4x,8x,
3x,6x,3x,6x,2x,7x,2x,7x,1x,8x,1x,8x,1x,8x,1x,8x,
{1}1bxh[1:1],
{2},{16}3,5,3,5,3,5,3,5,
{4}3-1[8:1],3/7,7-5[8:1],7/4,
2-4[8:1],2/7,{8}8-6[8:1],5,{4}8,
{8}4-2[8:1],8,{4}4/8,5-7[8:1],5/2,
{8}4-2[8:1],8,{4}4,{8}5-7[8:1],1,5,{16}3,2,
{4}1-4[8:1],1/5,8-6[8:1],8/3,
1-3[8:1],{8}1,{16}6,7,4/8-5[8:1],3x,{8}2x,{4}8,
2-8[8:1],{8}2,6,{4}3-5[8:1],3/7,
2-8[8:1],{8}2,5,3-5[8:1],6,3,8,
7/2,7,6/3,3,4/7,7,2/6,2,
{16}7x,3x,7x,3x,7x,3x,7x,6x,5x,4,3,2,1,8,7,6,
{4}5b/4xh[8:1],3h[8:1]/7h[8:1],2h[8:1]/7h[8:1],1h[8:1]/8h[8:1],
7h[8:1]/1h[8:1],{16}1,2,3,4,8,7,6,5,1,2,3,4,
{8}5/8h[8:1],2x,8h[8:1],3,8h[8:1],3,{4}8h[8:1]/2>6[4:1],
{16}2,{4},{16}7,8,1,{4}2-4[8:1],2x/6h[8:1],
{8}7x/1x,7/1,2,2,6,{16}6/1,5,{4}4,
{16}1bx,2x,3x,4x,5/1x,8,7,6,5/1x,2,3,4,5/1x,8,7,6,
{4}1/5b-7[8:1],5/3,3-1[8:1],3/8,
6-8[8:1],6/3,{8}4-2[8:1],1,{4}4,
{8}8-6[8:1],4,{4}8/4,1-3[8:1],1/6,
{8}8-6[8:1],4,{4}8,{8}1-3[8:1],5,1,{16}7,6,
{4}5-8[8:1],5/1,4-2[8:1],4/7,
5-7[8:1],{8}5,{16}2,3,8/4-1[8:1],7x,{8}6x,{4}4,
6-4[8:1],{8}6,2,{4}7-1[8:1],7/3,
{8}4,4,{16}3x,6x,3x,6x,3x,6,3,6,{4}3,
{16}8/2b,7,6,5,{4}4,{16}8/2b,7,6,5,{4}4,
{16}1/7b,2,3,4,{4}5,{16}1/7b,2,3,4,{4}5,
{16}8,7,6,5,4/1,2,3,4,5/8,7,6,5,4/1,2,3,4,
{8}5/8b,2,6,4,7,3,8,1,
6b,3,6,3,6,3,{16}5,4,{8}5h[8:3],
{4},{8}1,2,{4}3h[4:1]/5<7[8:1],5,
8bx,{8}8,3,8,1h[8:3],{4},7bh[4:1],
{8}2,5,{4}2h[4:1],{8}8,3,
4/6bh[4:1],3,{4}2,5/4,{16}5bx,6x,4x,3x,
5,6,4,3,5,6,4,3,5,4,5,4,5,4,5,4,
{1}5b/B3/B2/B1/B8/B7/B6/B5/B4/Cf/E4/E6/E8/E2/E3/E1/E7/E5,
