&title=Sing my pleasure
&artist=八木海莉
&first=0.2
&des=某科学的零氪百合子
&lv_5=13+
&inote_4=(125){4},
&inote_5=(174.68){4},{1},{4},,,{8}4b-7[0.5152##0.1717]*-1[0.5152##0.1717],
{4},{8}4b-8b[0.5152##0.1717],{4},4b-7[0.5152##0.1717]*-1[0.5152##0.1717],
{8},4bv1b[0.5152##0.1717]*v7b[0.5152##0.1717],{4},{8}4b,{4},{8}5bpp5b[8:11]*qq5b[8:11],
{1},,{4}C,
B2/B3,B6/B7,{8}3-8[8:1],4,
{4}3,{8}6-1[8:1],5,{4}6,{8}4,5,
{4}C,C/B2/B3/B7/B6,B7/B6/C/B8/B1/B2/B3/B4/B5,{8}2-5[8:1],1,
{4}2,C,{16}2qq7[4:1]/6qq3[4:1],{4},{8},{16}C/B7/B3/B2/B6,
{4},B2,B7,B3,
B6,C,1/C,2/C,
3/C,4/C,5/C,6/C,
7/C,8/C,{2}Ch[4:1],
(87.34){16}7/2-6[16:1],2,{8}1,{16}2/5-1[16:1],5,{8}3/4,{16}5/3-7[16:1],3,{8}B2/B4,{16}3,{8},{16}5,
5q8[0.8587##0.8587],4p1b[0.8587##0.687],6,3,,5,{8}4,{4},{8}1/8qq4[4:1],{16}2/7,8h[16:5],
,,,{32},C,{8},2-4[8:1],4-6b[8:1],6-8[8:1],8-2b[8:1],2-5[8:1],
5-1b[8:1],1x-6[8:1],{4}6-2b[16:5],{8}B5,B8,{4}B3,
{16}3-1[16:1],3,{8}4/2,{16}3/6-8[16:1],6,{8}7/5,{16}6/2-4[16:1],2,{8}1/3,{16}2/7-4[16:1],7,{8}6/8,
{16}7/2-5[16:1],2,{8}B8/B1,{16}7-3[16:1]/2-6[16:1],7,{8}1/8,{32}7/2,C,{16},,,{8}5/4qq8[4:1],{16}3/6,4h[16:5],
,,,{32},C,{8},1-4[8:1],4-8b[8:1],8-5[8:1],5-2b[8:1],2-6[8:1],
{4}6qq3b[4:1],{8}B7,B8/B1,B2,B7/B6,B2/B3,Ch[8:3],
{4},,{16},5b-2b[16:1],5b-8b[16:1],5b-1b[16:1],6b/4b,5b,5b,{32}5b,C/B1/B5,
{8},{16}B3,B4,E5,B5,B6,C,,7bs3b[0.7728##0.1717],6b/8b,5b/1b,{32}4b/2b,{16},{32}7b,{8}C,
{16}Ch[8:15],{4},,{8},{16}B1/B2,{4},{16}B8/B7,
{4},{16}B5,E5,B4,{2},{16}8-6b[0.8587##0.1717]/1-3b[0.8587##0.1717],
8-4b[1.0305##0.1717]/1-5b[1.0305##0.1717],,2/7,,{32}8b/1b,E2/E8/E7f/E3f,{16},{32}8b/1b,B1/B5/B8/B4/Cf,{4},(174.68)2/3,
7/6,{8}8-4[8:1],1-5b[8:1],8-3[8:1],1-6b[8:1],8,1,
7-4[8:1],8-3b[8:1],7,8,6-1[8:1],5-2b[8:1],6,5,
{4}C,{16}3b/7b,6,5,4,7b/3b,2,1,8,{8}3/7v4[8:1],6,
7,1V35[8:1],5p2[8:3],1/6-8b[0.5152##0.1717],,7/C,{4}6b,
,{8}8/2-6[8:1],7,2/8-4b[8:1],7,8/3-7[8:1],2,
3/5-1b[8:1],4,5/2-6[8:1],3,2/7-4b[8:1],8,7/3qq8[4:1],2,
3/5,C,,5b/6bh,3b/1bh,4b/7bh,8b/2bh,3b/6bh,
5b/1bh,7bh[8:3]/2bh[8:3],{2},{4}B6/B5,
B4/B3,{8}2-8b[8:1],7-1[8:1],2-5b[8:1],7-4[8:1],2,7,
1q6b[8:1],8p3[8:1],1,8,4p7b[8:1],5q2[8:1],4,5,
{4}C,{16}2b/5b,3,4,5,3b/6b,4,5,6,{8}7/2V85[8:1],3,
2,7<4b[8:1],4q7b[8:3],7/3-1[0.5152##0.1717],,2/C,{4}3b,
,{8}5/4-8b[8:1],6,4/5-1[8:1],3,5/4-7b[8:1],7,
4/5-2[8:1],2,5/4-1b[8:1],7,4/6-1[8:1],5,6/3s7[16:3],5,
3/6,C,{16},6b,5,1b,2,4b,3,7b,8,5b,4,1b,
2,8bh[16:11]/3bh[16:11],{4},,,{8},{4}8/1,
8/2q5b[8:3],{8}2,1p6[8:3],,1,
,3-7b[8:1],,3,5,4-8[8:1],,4/B6/B5/E6,
,7/B1/B2/E2,,2/B8/B7/E8,,6/B2/B3/E3,,3/Ch[8:3],
{2},{4}B7/B8/B2/B1,{8}8/1,2/7,
6/3,{16}4b,5,4,5,4b,5,4,5,3b,6,3,6,3b,6,
3,6,2b,7,2,7,2b,7,2,7,6,5,4/8b,3,2,1,
8/4b,7,6,5,{32}2b/Cf,3,4,5,6,7,8,1,2b/Cf,3,4,5,6,7,8,1,{16}2b/Cf,{8},{16}E1/B8/B1,
,,,B7,,B2,,,,B5/B6,,,,B3/B4,{4},{16},4qq8b[16:25]/5pp1b[16:25],
E
