&title=RED ZONE
&artist=清水達也; 前田尚紀
&first=0
&des=谱面-200号
&lv_5=12+
&inote_5=(165){1},
6<3[2:1]/3,{8}6<3[2:1]/5,,,,,,,,1s5[2:1]/8,,,,,,,,
{16}3,3,4,4,3b,,5/2,5b/2b,,4/7,4b/7b,,1/8,2/7,3b/6b,,
{16}2>5[8:1],1,3,,6,,7,,8,6,7>2[8:1],5,6h[8:1],,7,,
5,6,7,8,3,4,5,6,1>4[8:1],8,7,6,5,,,,
{16}7<4[8:1],8,6,,3,,2,,1,3,2<7[8:1],4,3h[8:1],,2,,
4,3,2,1,6,5,4,3,1h[8:1],,8h[8:1],,2,2,3b/1b,,
{16}4>1[8:1],5,3,,6,,7,,8,2,7<4[8:1],1,6h[8:1],,7,,
8,7,6,5,3,2,1,8,5,6,7,8,1/5,4,3,2,
{16}8<5[8:1],1,7,,2,,3,,4,6,3>8[8:1],5,2h[8:1],,3,,
4,4h[8:1],,7,5,4,3,2,1-5[8:1],,,,6b,,7b,,
{8}8h[8:1],4,7h[8:1],3,6h[8:1],2,5h[8:1],1>4[8:1],,
8,7h[8:1],3,6h[8:1],2,5h[8:1],1,
{16}5,6,7,4,3,2,6,7,8,3,2,1,4/8-4[8:1],,4/8,,
5,6,7,8,5,6,7,8,1,2,3,4,1,2,3,4,
{8}1h[8:1],5h[8:1],2h[8:1],6h[8:1],3h[8:1],7h[8:1],4h[8:1],8h[8:1],
5h[8:1],1h[8:1],3h[8:1],7h[8:1],1>4[8:1],5,6,7,
{16}3,2,1,6,7,8,4,3,2,5,6,7,1/8,,2/7,,3-7[8:1]/6,,
{8},4,5,{16}6,8,6,1,6,2,6,3,
{8}7<4[8:1],8,4-8[8:1]/7,3,2-5[8:1],{16},2,2,,8,,
7-5[8:1],,8-4[8:1],,7,,8,,6h[8:1],,3,2,1,,8/7,,
{8}2>5[8:1],1,5-1[8:1]/2,6,7-4[8:1],{16},7,7,,1,,
5,6,7,8,1-5[8:1],,2,,4<6[8:1],3,2,,4,,,,
{8}2>5[8:1],1,5-1[8:1]/2,6,7-4[8:1],{16},7,7,,1,,
2-4[8:1],,1-5[8:1],,2,,1,,3h[8:1],,6,7,8,,1/2,,
{8}7<4[8:1],8,4-8[8:1]/7,3,2-5[8:1],{16},2,2,,8,,
4,3,2,1,8-4[8:1],,7,,5>3[8:1],6,7,,5,,,,
{8}7<4[8:1],8,1/7,
{16}2,2-8[8:1],,8-4[8:1],,7,7,,6,,
5h[8:1],,3,,6,5,,,8-4[16:1]/7-3[16:1],,,7/8,,,,,
{8}2>5[8:1],1,8/2,
{16}7,7-1[8:1],,1-5[8:1],,2,2,,3,,
{16}2,3,4,7,6,5,1,2,3,8,7,6,5/4,,3/6,,
{8}7<4[8:1]/2,8,1/7,
{16}2,2-8[8:1],,8-4[8:1],,7,7,,6,,
5,,2,4h[8:1],,3,5h[8:1],,4,6h[8:1],,5,7h[8:1],,4,,
{8}3/5,2,1/8,7,6/5,4,1/3,2/8,{16}1,7,1,7,2,6,2,6,{32}
1b,2,3,4,5,,8b,7,6,5,4,,1b,,,,
{8}4-6[8:1],,2-4[8:1],,8-2[8:1],,
3,3,1,2,8,1,7,6,5,4,3-1[8:1],,5-3[8:1],,1-7[8:1],,
4,4,,5,3,6,2-6[8:1],7,,,8-6[8:1],,8/2-4[8:1],,8-2[8:1]/2,,4-6[8:1]/8,4,
8,7,6,5,4,3,2,1,
8/7-5[8:1],,7/1-3[8:1],,1/7-1[8:1],,7/3-5[8:1],3,1,8,7,6,{16}
4,5,3,6,2,7,1,8,
{8}2>5[8:1]/7,1,6-2[8:1]/2,7,8-4[8:1],{16},8,8,,1,,
2-4[8:1],,1-5[8:1],,2V84[4:1],,1,,2,,5,6,7,,7,,
{8}6<1[8:1],5,2-6[8:1]/6,3,4-8[8:1],{16},4,4,,5,,
4,5,6,7,8-4[8:1],,1/2,,3<5[8:1],2,1,,3,,,,
{8}7<4[8:1],8,3-7[8:1]/7,2,1-5[8:1],{16},1,1,,8,,
7-5[8:1],,8-4[8:1],,7V15[4:1],,8,,7,,4,3,2,,2,,
{8}3>8[8:1],4,7-3[8:1]/3,6,5-1[8:1],{16},5,5,,4,,
5,4,3,2,1-5[8:1],,8/7,,6>4[8:1],7,8,,6b,,,,
{8}2>5[8:1],1,8/2,
{16}7,7-4[8:1],,4-8[8:1],,3,3,,2,,
1-3[8:1],,7,,1-7[8:1],6,,,1-5[16:1],,,1,,,,,
{8}7<4[8:1],8,1/7,
{16}2,2-5[8:1],,5-1[8:1],,6,6,,7,,
{16}8,7,6,5/1,2,3,4/8,7,6,5/1,2,3,4,5,6,7,
{8}8/2>5[8:1],1,2/7,
{16}6,6-1[8:1],,1-5[8:1],,2,2,,3,,
4,,6,4h[8:1],,5,3h[8:1],,4,2h[8:1],,3,1h[8:1],,8,,
{8}6/4,7,8/1,2,3/4,5,8/6,7/1,{16}8,2,8,2,7,3,7,3,{32}
8b,7,6,5,4,,1b,2,3,4,5,,8bz4[2:1],,,,,,,,,,,,,,,,,,,,,,,,,,,,,,,,,,,,
{16}2,1,2,1,3,8,3,8,2,3,4,5,1,2,3,4,2,6,2,6,3,7,3,7,
4,3,2,1,4,3,2,1,8,7,6,5,8,7,6,5,1,2,3,4,1,2,3,4,
6,5,6,5,7,4,7,4,8,7,6,5,8,7,6,5,
4,3,2,1,7,8,7,8,7,6,5,4,3,4,3,4,2,3,4,5,2,3,4,5,8,6,8,6,{24}8,1,2,3,4,5,
{16}7,8,7,8,7,6,5,4,1,3,1,3,8,1,2,3,
7,4,7,4,{24}8,1,2,3,4,5,{16}2,6,2,6,{24}1,8,7,6,5,4,
{16}3b-8[16:1],,,7b-4[16:1],,,1b-5[16:1],,,,8b,,7b/4b,,6b/3b,,5b-2[16:1]/2b,,,7b-4[16:1],,,1b-5[16:1],,,,8b,,7b/4b,,6b/3b,,
{32}1b/8b,2b/7b,3b/6b,4b/5b,,,,,E
