&title=ボクラハ&ナイデ
&artist=HIMEHINA
&first=-0.16
&des=Elaina1cy
&lv_6=13+
&inote_6=(74)
{8},,,,8pp5[8:12],,8x,,3h[8:2],,,,2h[8:2],,,,4h[8:1],,4,
{8},4pp1>3[8:12]*pp1>3[8:12],,4x,,7h[8:2],,,,6h[8:2],,,,8h[8:1],,8,,
{8}1h[8:4]/8bpp3>7<2<1<8<7p3[8:9],,,,,,C,,C,,C,,
{24}1s5[16:1]*z5b[16:1]/8,,,,,,1,,,,,,
(148)
{16},,4h[8:1],,,6h[8:1],,,3h[16:3],,,,{8}7x-4[8:1],2xv5[8:1],
{8}7,2x,8x-4[8:1],7,8/2p5q2[8:2],3,2,,
{16},,4,6,4,6,4,7,4,7,4,7,4h[8:1],,
{32}7,,E8/B7/E7,,,,,,1,,B1/E1/E2,,,,,,8,,E1/B8/E8,,,,,,2,,B2/E2/E3,,,,,,,,,,
{24}7h[8:2],B7,Cf,B3,A3,,
{16},,,,4x,5x,4,5,4,5,4,5,4x,6,4,7,4,8,4,8,3,8,2,8,1,8,,,
{16}2x,8x,2,8,2,6x,2,6,3x,7x,3,7,3,5,3,5,
{16}1>5b[8:2],,,,5<1[8:2]/1,,,,1b>5[8:2]*>5[8:2],,,,
{8},,,3h[8:1],4,4h[8:2],,{16},5h[16:1],,,6h[8:1],,
{8}3,3,4,{16}6,5,7h[8:1],,2,,2V46[8:2],,4,,
{8},,A6,8,8<7-4[16:2]*-4[16:2],,,,
{8}A7/E8/B7,A2/E2/B2,B5/B4/E5,8x-6-4-2[8:2],,,,,,
{8}6h[8:1],5,5h[8:2],,{16},4h[16:1],,,3h[8:1],,
{8}6,6,5,{16}3,4,2h[8:1],,7,,7V53[8:2]*V53[8:2],,5,,
{8},,A3,1,1>2-5b[16:2]*-5b[16:2],,,,
{8}A2/E2/B2,A7/E8/B7,B4/B5/E5,1x-3-5-7[8:2]*x-3-5-7[8:2],,,,,
{8}8b,1,1h[8:1],,{16}7h[12:1]/1h[12:1],,,8hx[12:1]/2xh[12:1],,,8xh[12:1]/1xh[12:1],,
{8}3,3,5h[8:5],,,2h[8:1],,2,7h[8:1],
{8},1-5v3[8:2]*-5v7[8:2],1x,1x,,,6xh[8:2]/4xh[8:2],,,7p3[8:2],7h[8:2],,,,,
{8}1,8,8,,{16}2h[12:1]/8h[12:1],,,1hx[12:1]/7xh[12:1],,,1xh[12:1]/8xh[12:1],,
{8}6,6,4h[8:6],,,7,7,7,7h[8:1],
{8},8-4pp6[8:2]*-4qq2[8:2],8x,8x,,,3xh[8:2]/5xh[8:8],,,2p6[8:2],,,,,,
{16}1h/2h,,,1h/2h,,,2-6[8:1]/3-7b[8:1],,2h/3h,,,,,,,,
{16}5h/6h,,,5h/6h,,,6z2[8:1]/7s3b[8:1],,6h/7h,,,,,,,,
{8}4x,,4,,6<8-2>4-6[8:8],,8x-2>4-6[8:6]*-2>4-6[8:6],,2x>4-6[8:4],,4x-6b[8:2],,,,,,
{16}8h/7h,,,8h/7h,,,7s3[8:1]/6z2b[8:1],,7h/6h,,,,,,,,
{16}4h/3h,,,4h/3h,,,3-7[8:1]/2-6b[8:1],,3h/2h,,,,,,,,
{8}5x,,5,,3>1-7<5-3[8:4],,7x<5-3b[8:2],,,,,6h[8:1],,5/4,5/4,5/4,
{16}4x,5x,4x,5x,4,5,4,5,3,5x,4x,6x,4x,6,3,,
{12}8b-4[8:1],,1bw5b[16:1],,1b,,Cf/B1/B6/B5/B4,,,,,,
{16}1/8-6[12:1],,7,,1-3[12:1]/8,,2,,1/8-5[12:1],,,,8-4[12:1]*-4[12:1],,,,
{16}2h/8,,2h,,2h[16:1]/1-7[12:1]*-3[12:1]*-3[12:1],,,,1w5b[12:1],,,,1,,,,
{16}8/1>3[12:1],,2,,8-6[12:1]/1,,7,,8/1-4[12:1],,,,1-5[12:1]*-5[12:1],,,,
{16}7h/1,,7h,,7h[16:1]/8>2[12:1]*<6[12:1]*<6[12:1],,,,8w4b[12:1],,,,8,,,,
{16}7x,8x,7,8,7,8,,2x,1,2,1,2,1,2,1,,
{16}7h[8:1],,3h[8:1],,5,,5w1b[12:1],,,,5b,,,,,,
{16}1>4[12:1]/7,,2,,7<5[12:1]/1,,8,,7/1v6[12:1]*v4b[12:1],,,,1,,,,
{16}1q5[12:1],8,,8,1,,8-6[12:1]*-5[12:1],,1-3[12:1],,8b,,1bx,,,,
{16}8/1>4[12:1],,7,,8-6[12:1]/1,,,,8/1-4[12:1],,,,1-5[12:1]*-5[12:1],,,,
{16}7h/1,,7h,,7h[16:1]/8-2[12:1]*-6[12:1]*-6[12:1],,,,8-3b[12:1]*-5b[12:1],,,,8,,,,
{16}1/8<6[12:1],,7,,1-4[12:1]/8,,2,,1/8-5[12:1]*-5[12:1],,,,8-4[12:1],,,,
{16}2h/8,,2h,,2h[16:1]/1<7[12:1]*>3[12:1]*>3[12:1],,,,1-6b[12:1]*-4b[12:1],,,,1,,,,
{16}6x,5x,6,5,6,5,,3x,4,3,4,3,4,3,4,,
{16}3h[8:1],,7h[8:1],,1,,1w5b[12:1],,,,1b,,,,,,
{16}7,7,,5,5,,3,3,,1,1,,8h[8:1]/2h[8:1],,,,3h[8:1],,1h[8:1],,7h[8:1],,5h[8:5],,,,,,,,,,
{16}3b-1-7[8:2],,,,7-5-3[8:2]*-5-3[8:2],,,,3w7[8:1],,,,,,,,
{16}2h[8:1],,5,,7-5[12:1]*-4[12:1],,8,,7-2b[12:1],,,,7,,,,
{16}6b-8-2[8:2],,,,2-4-6[8:2]*-4-6[8:2],,,,6w2[8:1],,,,,,,,
{16}7h[8:1],,4,,2-4[12:1]*-5[12:1],,1,,2-7[12:1],,,,2,,,,
{16}8xp4[12:1]`4xp8[12:1]*p8[12:1],,,,8x>3[12:1]`4x<7[12:1]*<7[12:1],,,,8xp4[12:1]`4xp8[12:1]*p8[12:1],,,,8/4,,,,
{16}3h[8:1]/7,,7,,2h[8:1]/6,,6,,1h[8:1]/5h[8:1],,,,8h[8:1]/4h[8:1],,,,
{16}7h[8:4]/3h[8:4],,,,,,,,,,8/4,,1/5,,{32}2bx,3x,
{32}4x,5x,6x,7x,8x,1x,2x,3x,4x,5x,6x,7x,8x,1x,2x,3x,4x,5x,6x,7x,8x,
{32}1x,2x,3x,4x,5x,6x,7x,8x,1x,2xb,,,,
{8},,E2,,E3,,E4,,E5,,E6,,E7,,E8,,
{8}E1/D1,,E2/D2,,E3/D3,,E4/D4,,E5/D5,,E6/D6,,E7/D7,,E8/D8,,
{16}2-5[8:1],4,3,,2x,,,,7<4[8:1],5,6,,7x,,,,
{16}1>5[8:1]*-3-5[8:1],7,8,,1x,,,,8p4b[8:1],6,7,,8x,,,,
{16}2-5[8:1],3,4,,2,,,,6-2b[8:1],5,4,,6,,,,
{16}5pp5[4:2]*qq5b[4:2],,,,,,,,,,,,,,,,
{16}3/5,,2,,2,,,,{16}2h/8h,,,2h/7h,,,2h/6h[8:3],,
{16},,,,3,,,,1,,2,,1/7,,,,
{16}8/2,,,,4h[8:2],,,,6<1[8:1],,4,,3h[8:1],,,,,,2,,2/6h[4:2],,,,,,B6,C,B2,,,,
{16}6/4,,7,,7,,,,{16}7h/1h,,,7h/2h,,,7h/3h[8:3],,
{16},,,,6,,,,8,,7,,8/2,,,,
{16}1/7,,,,5h[8:2],,,,3q1[8:1]*q1[8:1],,5,,6h[8:1],,,,,,7,,7/3h[4:2],,,,,,,,,,,,
{16}E7,,E3,,C,,,,4h[8:2]/5h[8:3],,,,,,3hx[16:3],,,,E7,B6,B5,,,,Ch[8:2],,,,,,,,
{16}7h[8:2]/4-1[8:1],,,,4-8[16:1],,,,4b,,,,,,7qq3[4:2]/3h[8:2],,,,,,,,,,,,,,,,,,
{16}1h[8:3]/7,,6,,5,,,,1h/3h,,,2h/8h,,,1h[8:2]/7h,,
{16},,7qq4[16:6],,3qq8[4:1]*qq8[16:4],,7x,,,,,,,
,,,
{16}8pp2[8:1]*qq6[8:1],,6<8[8:1]/2<8b[8:1],,8x-4[16:3],,,,,,,5pp5qq5b[8:6],,,5h[8:5],,
{16},,,,,,,,,,,,,,,8hx[16:9],2bx,,,2b,,,3bpp5pp7[4:1],,3bh[8:1],,,,,,,,
{16}2h[16:9]/6bx,,,6b,,8bz4[4:1],,8b,,,,,,,,,
{16}8-6[12:1],,5,,8-2[12:1],,4,,8-5[12:1],,4h[8:1],,8-3[16:1],,4w8[16:3],,
{16}8x,,4x,,,,,,A7/E8/B7/E7/A3/E3/B3/E4,,,,A6/E7/B6/E6/A2/E2/B2/E3,,,,
{16}1hx[16:9]/7bx,,,7b,,,6bqq4qq2[4:1]*qq4qq2[4:1],,6bh[8:1],,,,,,,,
{16}7h[16:9]/3bx,,,3b,,1bq5[4:1]*bq5[4:1],,1b,,,,,,,,,
{16}1>3[12:1],,4,,1<7[12:1],,5,,1-4[12:1],,5h[8:1],,1-6[16:1],,5s1[8:2],,
{16}1x,,,,,,,,,,1/5,,3/6,,4/5,,
{16}4,5
,4,5,3,5,2,5,1,5,2,6,1,5,2,6,
{16}8x/7x,,,1/2,,3/4,,5x/6x,6h[8:3],,4,,2,,8,,
{16}1/8-6[12:1],,7,,1-5[12:1]/8-4b[12:1],,2,,1-3[12:1]/8<6b[12:1],,,,8-4[12:1]*-4[12:1],,,,
{16}2h/8,,2h,,2h[16:1]/1-6[12:1]*-4[12:1]*-4[12:1],,,,1w5b[12:1],,,,1,,,,
{16}1/2>4[12:1],,3,,1-7[12:1]/2,,8,,1q5[12:1]/2-5[12:1],,,,2-6[12:1],,,,
{16}8h/2,,8h,,8h[16:1]/1>4[12:1]*<6[12:1]*<6[12:1],,,,1w5b[12:1],,,,1,,,,
{16}7,8xh,7,8h,7,,7,2xh,1,2h,1,2h,1,2h,1,,
{16}7h[8:1],,3h[8:1],,5,,5w1b[12:1],,,,5b,,,,,,
{16}2-4<5[12:1]/8,,7,,8-
6[12:1]/2,,1,,8/2-4[12:1]*v5b[12:1],,,,2,,,,
{16}2q6[12:1],1,,1,2,,1-7<6[12:1]*-6[12:1],,2-4[12:1],,1b,,2bx,,,,
{16}8/1-3[12:1],,2,,8z4[12:1]/1s5b[12:1],,7,,8-3[12:1]/1>3b[12:1],,,,1-5[12:1]*-5[12:1],,,,
{16}7h/1,,7h,,7h[16:1]/8-6[12:1]*-2[12:1],,,,8v3b[12:1]*v5[12:1],,,,8,,,,
{16}8/7<5[12:1],,6,,8-2[12:1]/7,,1,,8p4[12:1]/7-4[12:1],,,,7-3[12:1],,,,
{16}1h/7,,1h,,1h[16:1]/8<5[12:1]*>3[12:1]*>3[12:1],,,,8v3[12:1]*v5b[12:1],,,,8,,,,
{16}3,4xh,3,4h,3,4h
,,6xh,5,6h,5,6h,5,6h,5,
{16}3h[8:1],,7h[8:1],,1,,1w5b[12:1],,,,1b,,,,,,,
{16}2,2,,4,4,,5,5,,7,7,,7h[16:1],3,,,7h[8:1],,1h[8:1],,3h[8:1],,5h[4:2],,,,,,,,,,
{8}7x-5[12:1],8,1x-3[12:1],8,7x-5[12:1],8,1x-3
[12:1],,
{16}4h[8:4],,,,3x,2,1,8,7,6,5,4,3,2,1x,,
{8}8x-6[12:1],1,2x-4[12:1],1,8x-6[12:1],1,2x-4[12:1],,
{16}6hx[8:1],,5,,6h[8:1],,4,,6h[8:1],,3,,6h[8:1],,2,,
{24}8x,7x,6x,5x,,3x,2x,1x,8x/7x,6,5,4,3,2,1,8x,7,,5x,4x,3,2/1x,8,7,
{16}3h[4:2]/6,,,,6,,,,8,8,,6,,,2h[8:1]/6h[8:3],,
{24},,,,,,2x,3,4,,6x,7,8/1x,2,3,,5x,6,7h[8:2]/3,,,,,,
{16}1h[8:1],,2,,3h[8:1],,4,,5h[8:1],,6,,7h[8:1],,8,,
{16}7h[8:3],,,3,,,B8/B1/E1,,7h[8:3]/4,,,3,,,B1/B2/E2,,
{16}6h[8:3],,,4,,,B7/B8/E8,,6h[8:3]/4,,3,,2,,1,,
{16}3h[8:3],,,7,,,B4/B5/E5,,3h[8:3]/8,,,7,,,B5/B6/E6,,
{16}2h[8:3],,,8,,,B3/B4/E4,,2h[8:3]/8,,7,,6,,5,,
{16}2h[8:2],,,,6,4,5,3,6,4,5,3,5,3,6,4,6,3,5,4,5,4,5,3,6,4,6,4,6,5,,,
{16}5,4,5,,3,4,3,,7,5,6,,2,4,3,,
{16}2,1,3,8,4,7,5,6,3,4,2,5,1,6,8h[8:8],,
{16},,,,B2,,,,,,,,B6,,,,2,,,,7-3[4:1]*q4[4:1],,,,,,,,,,2h[8:8],
{16},,,,,B3/B4/E4,,,,,,,,B7/B8/E8,,,,
{16}6-2[4:1]*p1[4:1],,,,,,,,,,,,5w1b[4:3],,,,
{16}5b,B5f/E5/E6,,,,,,,,,,,,,7h[8:7],,
{16}1,,,3,,,5,,3,,,,3,,,,
{16}2,1,2,1h[8:1],,,,6-8b[16:1],5,6,5,,,,,,
{32}1x/8bx,,1x/8bx,,1x/8bx,,1x/8bx,,
{96},,,,,3/5b,,,,,,,,,,,,4/6b,,,,,,,,,,,,1/8b,,,,,,,,,,,,1h[4:2]/8bh[4:2],,,,,,,
{8},,,,,,,,,,
{16}7xv5<7v1[4:6]/2v4>2v8b[4:6],,,,{4},,,,,,,
{16}2v7<6v3b[4:6]/6xv1>2v5[4:6],,,,{4},,,,,,,
{16}1x-4[4:6],,,,,,,,B7,,,,,,,,B8,,,,,,,,,,B2,B3,E4,,,,
{16}8x-5-3[4:2],,,,,,,,,,,,,,,,8-5[4:1]*>5[4:4],,,,,,,,,,,,5h[4:4],
{4},,,,,{16},8b,,8bx,,8bx,,
{16}1-6[12:1],,8,,1-5[12:1],,,,1-3[12:1]/8-3b[12:1],,,,8<6[12:1]*<6[12:1],,,,
{16}2h/8,,3h,,4h[16:1]/1-6[12:1]*-4[12:1],,,,1-5b[12:1],,,,1,,,,
{16}1/2-6[12:1],,3,,1<6[12:1]/2,,8,,1-5[12:1]/2p5[12:1],,,,2q6[12:1],,,,
{16}8h/2,,8h,,8h[16:1]/1v6[12:1]*v4[12:1]*v6[12:1],,,,1-5b[12:1],,,,1,,,,
{16}1x,7,1x,7,1,7,,8x,2x,8,2,8,2,8,2,,
{16}7h[8:1],,3h[8:1],,5,,5w1b[12:1]*-1[12:1],,,,5b,,,,,,
{16}7-5>4[12:1]/1,,2,,1-
3[12:1]/7,,8,,1/7-5[12:1]*v4b[12:1],,,,7,,,,
{16}7p3[12:1],8,,8,7,,8-2>3[12:1]*-3[12:1],,7-5[12:1],,8b,,7bx,,,,
{16}8/1-3[12:1],,2,,8-6[12:1]/1-6b[12:1],,7,,8-3[12:1]/1>3b[12:1],,,,1-5[12:1]*-5[12:1],,,,
{16}7h/1,,7h,,7h[16:1]/8<4[12:1]*>4b[12:1],,,,8q4[12:1]*p4b[12:1],,,,8,,,,
{16}8/7<5[12:1],,6,,8-2[12:1]/7,,1,,8-4[12:1]/7q4[12:1],,,,7p3[12:1],,,,
{16}1h/7,,2h,,2h[16:1]/8-6b[12:1]*-4[12:1],,,,8-5[12:1]*-3b[12:1],,,,8,,,,
{16}3,5x,3,5,3,5,,6x,4,6,4,6,4,6,4,
{16}3h[8:1],,7h[8:1],,1,,1w5b[12:1],,,,1b,,,,,,,
{16}7,7,,5,5,,4,4,,2,2,,2h[16:1],6,,,2h[8:1],,8h[8:1],,6h[8:1],,4h[4:2],,,,,,,,,,
{16}3b>7[8:2],,,,7<3[8:2]*<3[8:2],,,,3w7[8:1],,,,,,,,
{16}1h[8:1],,4,,2-4[12:1]*-5[12:1],,1,,2-7b[12:1]*-8b[12:1],,,,2,,,,
{16}3b<7[8:2],,,,7>3[8:2]*>3[8:2],,,,3w7[8:1],,,,,,,,
{16}2h[8:1],,5,,7-5[12:1]*-4[12:1],,8,,7-2b[12:1]*-1b[12:1],,,,7,,,,
{16}1xq5[12:1]/5xq1b[12:1],,,,1x<6b[12:1]/5x>2[12:1],,,,1xq5[12:1]/5xq1b[12:1],,,,1/5,,,,
{16}6h[8:1]/2,,2,,7h[8:1]/3,,3,,8h[8:1]/4h[8:1],,,,1h[8:1]/5h[8:1],,,,
{16}2h[8:4]/6h[8:4],,,,,,,,,,1/5,,8/4,,{32}7bx,6x,
{32}5x,4x,3x,2x,1x,8x,7x,6x,5x,4x,3x,2x,1x,8x,7x,6x,5x,,
{24}3bh[8:1],,,,,,7bh[8:1],,,,,,3b,7x,3x,7x,3x,7x,3x,7x,3x,7x,3x,7x,3x,7x,3x,7x,3x,7x,3x,7x,3x,7x,3x,7x,3x,7x,3x,7x,3x,7x,3x,,,,,,
{24}2bh[8:1],,,,,,6bh[8:1],,,,,,2b,6x,2x,6x,2x,6x,2x,6x,2x,6x,2x,6x,2x,6x,2x,6x,2x,6x,2x,6x,2x,6x,2x,6x,2x,6x,2x,6x,2x,6x,2x,,,,,,
{16}4bh[4:1],,,,5bh[4:16],,,,{32}4b,3x,2x,1x,8x,7x,6x,,4x,3x,2x,1x,8x,7x,6x,,4xb,3x,2x,1x,8x,7x,6x,,4x,3x,2x,1x,8x,7x,6x,,4bx,3x,2x,1x,8x,7x,6x,,4x,3x,2x,1x,8x,7x,6x,,4xb,3x,2x,1x,8x,7x,6x,,4xh[4:8],,,,,,,,,,,,,,,,,,,,,,,,,,,,
{8},,,,,,,,,,,
{16}2-5[8:1],8,8,,2x,,,,7<4[8:1],8,8,,7x,,,,
{16}1>5[8:1]*-3-5[8:1],7,7,,1x,,,,8p4b[8:1],1,1,,8x,,,,
{16}2-5[8:1],3,4,,2x,,,,6-2b[8:1],5,4,,6x,,,,
{16}5pp5[4:2]*qq5b[4:2],,,,,,,,,,,,,,,,
{16}7-4[8:1],8,8,,7x,,,,2>5[8:1],1,1,,2x,,,,
{16}8<4[8:1]*-6-4[8:1],1,1,,8x,,,,1q5b[8:1],7,7,,1x,,,,
{16}7-4[8:1],6,5,,7x,,,,3-7b[8:1],4,5,,3x,,,,
{16}6,5,6,,3,4,3,,4/6,,7/3,,2/8,,,,7h[4:6]/2,2,2,,4,,4,,
{16}3,3,3,,1b,,1b,
