&title=璀璨时光
&artist=乐正绫
&first=0.763
&des=我仍然是中一v
&lv_5=13+
&inote_5=(160)
{16}
1x>4[2:3],,,,E7`B7,,,,,,,,E7`B7,,,,
{16}
,,,,E7`B7,,,,,,,,E7`B7,,,,
{16}
5x<8b[2:3],,,,B3/E3,,,,,,,,B3/E3,,,,
{16}
,,,,B3/E3,,,,,,,,{32}B3/E3,E4,E5,E6,E7,E8,E1,E2,
{16}
6-4[8:1],,,,3,,3-6[8:1],,,,7,,8-4[8:1],,,,
{16}
2-5b[8:1],,,,6,,6-3b[8:1],,,,2,,1-5b[8:1],,,,
{16}
7-4-6[16:3],,,,3,,2-5[8:1],,,,,,7-4-6b[16:3],,,,
{16}
,,1,,8,7,8-4b[8:1],,1,,2b/8b,,,,,,
{16}
3h[1:1],,,,,,4,,4,,,,,,,,
{16}
4h[1:1],,,,,,5,,5,,,,,,,,
{16}
5h[1:1],,,,,,6,,6,,,,,,,,
{16}
6,,4,,7,,3,,6,,,,,,,,
{16}
6h[1:1],,,,,,5,,5,,,,,,,,
{16}
5h[1:1],,,,,,4,,4,,,,,,,,
{16}
4h[1:1],,,,,,3,,3,,,,,,,,
{16}
3h[1:1],,,,,,4,,4,,,,4,5,6,7,
{16}
8h[2:1],,,,,,2,,2h[2:1],,,,,,,,
{16}
3h[2:1],,,,,,5,,5h[2:1],,,,,,,,
{16}
6h[2:1],,,,,,8,,8h[2:1],,,,,,,,
{16}
7,,,,,,4,,5,,,,2,,,,
{16}
2h[2:1],,,,,,6,,6h[2:1],,,,,,,,
{16}
8h[2:1],,,,,,7,,7h[2:1],,,,,,,,
{16}
5h[2:1],,,,,,4,,4,,,,5/6,,4/7,,
{16}
,,6,5,6,,1/8,,,,3,4,3,4,3,,
{16}
2-4[8:1]/5,,,,2x/6xh[4:1],,,,5,,7,,4,,8xh[4:1],,
{16}
,,3,,6,,1xh[4:1],,,,5,,2/6,,3/7,,
{16}
4/8<5[8:1],,,,8x/3xh[4:1],,,,4,,2,,5,,1xh[4:1],,
{16}
,,6,,3,,8xh[4:1],,,,4,,4>1[8:1]/7<4[8:1],,,,
{16}
4-8[8:1]/7,,,,4x,,,,1,,7p3[8:1],,2,,7bx,,
{16}
,,2>5b[8:1],,1,,2bx,,,,8<5[8:1],,4,,8,,
{16}
4b>1b[4:1],,,,1b<6b[4:1],,,,6b>3b[4:1],,,,3b,,,,
{16}
7,,2/6,,1/5,,4/8,,3-6[8:1]/7-2[8:1],,,,C,,,,
{16}
2x-6[8:1],,,,7,,,,8>3[8:1],,5,,,,4V63[4:1],,
{16}
1,,4,,8,,8<4[4:1],,,,4,,3,,2,,
{16}
1-5[8:1],,,,6,,,,7>2[8:1],,5,,7,,4,,
{16}
4x>1[8:1],,,,4x<7[8:1],,,,4x-8[8:1],,,,4b,,,,
{16}
7-3[8:1],,,,2,,,,1<6[8:1],,5,,,,4,,
{16}
8-3[8:1],,4-7[8:1],,8,,4,,,,5/7,,4/6,,3/5,,
{16}
2/4,,,,3,4,3,,2/5,,1/8,,7,5,6qq7[8:3],,
{16}
,,3,,2,,1,,8w4b[8:1],,,,8b,,,,
{16}
2q6[8:1],,,,6/2,,,,8>3[8:1],,5,,,,4V63[4:1],,
{16}
1,,4,,8,,8<4[4:1],,,,4,,3,,2,,
{16}
1-6[8:1],,,,6,,,,8-4[8:1],,4,,8,,3,,
{16}
1x-3[8:1]*-4[8:1],,,,1x-7[8:1]*-6[8:1],,,,1x-5b[8:1],,,,1b,,,,
{16}
7-4[8:1]/3-8[8:1],,,,3/7,,,,1>4[8:1],,5<8[8:1],,1,,5,,
{16}
,,4-7[8:1],,3,,2,,,,1p4[8:1],,8<5[8:1],,1,,
{16}
8,,,,3-8[8:1],,,,5-1[8:1]/3,,,,4>6[2:1]/5,,4h[8:7],,
{16}
,,,,,,,,,,,,{48}A5,A6,A7,A8,A1,,,,,,,,
{16}
4xV25[4:1],,,,2,,8-4[8:1],,,,4,,2>5[8:1],,,,
{16}
6xV47[4:1],,,,3,,1-5[8:1],,,,8,,8,,4,,
{16}
3x-5[8:1],,,,3,,6x-4[8:1],,,,6,,1x-5[8:1],,,,
{16}
1,,6,,3,7,2,8,1bw5b[8:1],,,,Cf,,,,
{16}
3/7,,2,,1/5,,6,,7/3,,,,2/6,,3,,
{16}
4/8,,7,,6x/2x-5b[8:1],,,,2x/8x-4b[8:1],,,,1x/8x,,,,
{16}
5/3,,6,,7/1,,2,,3/5,,,,8/2,,7,,
{16}
6/4,,3,,2/8,,7,,6/1,2,3,4,7,6,5,4,
{16}
1b,,,,3/4,,5,,1b,,,,8/3,,7,,
{16}
6/2,,3,,4x/8x<5b[8:1],,,,8x/1x>4b[8:1],,,,1x/8x,,,,
{16}
5/6,,7,,1-5[8:1]/8-4[8:1],,2/7,,1/8,,,,4/5,,3/6,,
{16}
2-5b[8:1]/7-4b[8:1],,1/8,,2/7,,,,1/8,,2,7,3,6,4,5,
{16}
4b>6[4:1]/6b,,,,B7/B8,,,,4<2[4:1]*<2[4:1],,,,B8/B1,,,,
{16}
5>7b[4:1],,,,B1/B2,,,,5-1[8:1],,,,5/4,,3,,
{16}
2v5[8:1]/8v5[8:1],,,,2/8,,,,3-5b[8:1],,5-8b[8:1],,3,,,,
{16}
6,,6,,1,,1,,2/4,,3/5,,4/6,,5/7,,
{16}
8,5,7,5,6,4,5,3,4,3,4,2,4,1,4,8,
{32}
A5,A6,A7,A8,A1,A2,A3,A4,{16}8xw4b[8:1],,,,8,,,,B7/B6/B2/B3/C,,,,
{16}
8xv3[8:1],,,,2,,,,1<6[8:1],,4,,,,5v8b[8:1],,
{16}
8<6-4b[4:1],,5,,1,,1>5[4:1],,,,6,,7,,8,,
{16}
1<6[8:1],,,,2,,,,8>3[8:1],,4,,8,,4,,
{16}
5x<8[8:1],,,,5x>2[8:1],,,,5x-1[8:1],,,,5b,,,,
{16}
2q6[8:1],,,,7,,,,8>3[8:1],,4,,,,5,,
{16}
1-6b[8:1],,5-2b[8:1],,1,,5,,,,4/2,,5/3,,6/4,,
{16}
7/5,,,,6,5,6,,7/4,,8/1,,2,4,3pp2[8:3],,
{16}
,,6,,7,,8,,1w5b[8:1],,,,1b,,,,
{16}
3v6[8:1],,,,3/7,,,,8>3[8:1],,5,,,,4v1b[8:1],,
{16}
1>3-5b[4:1],,4,,8,,8<4[4:1],,,,3,,2,,1,,
{16}
8>3[8:1],,,,7,,,,1<6[8:1],,4,,1,,3,,
{16}
1x-3b[8:1]*-4b[8:1],,,,1x-7b[8:1]*-6b[8:1],,,,1x-5b[8:1],,,,1b,,,,
{16}
3-6[8:1]/7-2[8:1],,,,3/7,,,,1/5,,4/8,,3/7,,2-5b[8:1]/6v1b[8:1],,
{16}
,,2/6,,,,8<5[8:1],,4>1[8:1],,8-4[8:1],,4,,8,,
{16}
1-6[8:1],,,,5-1[8:1]/1,,,,5/4-8[8:1],,,,4/6<4[2:1],,6h[8:7],,
{16}
,,,,,,,,,,,,{48}A5,A4,A3,A2,A1,A8,,,,,,,
{16}
7x-3[8:1],,,,8,,1>4[8:1],,,,8,,7,,6,,
{16}
5x-7b[8:1],,,,5x-3b[8:1],,,,5x-1b[8:1],,,,5x,,,,
{16}
2q6[8:1],,,,1,,8<4[4:1],,,,4,,3,,2,,
{16}
1,,5,2,6,3,7,4,8w4b[8:1],,,,8b/Cf/B8/B5/B4/B3,,,,
{16}
2bxq5[2:1]/6h[2:1],,,,,,,,,,,,6p4[2:1],,,,
{16}
2,,2,,,,,,1h[8:1],,5h[8:1],,2h[8:1],,6h[8:1],,
{16}
3qq5[2:1],,,,6,,6,,7,,,,4/8,,7,5,
{16}
6,,6h[8:3],,,,,,{32}A3,A4,A5,A6,A7,A8,A1,A2,A3,A4,A5,A6,A7,A8,A1,A2,
{16}
A3f/D4/E4/7bxp4[2:1],,,,,,,,,,,,3q5[2:1],,,,
{16}
6,,6,,,,,,8h[8:1],,4h[8:1],,7h[8:1],,3,,
{16}
6/2,,3/5,,2/6-2b[8:1],,3/5,,,,,,4/8,,4/7,,
{16}
4-8b[8:1]/6,,4/5,,,,,,4/8,,4h[4:1]/8h[4:1],,,,{24},1/5,2p4>5[24:112]/6,
{1}
3/7q5<4[8:37],,,,,
{4}
,
E
