&title=Tricky Treat!!!
&artist=曲: Kijibato(Dream Monster) / 歌: 逢坂 茜(CV:大空 直美)、高瀬 梨緒(CV:久保 ユリカ)、柏木 咲姫(CV:石見 舞菜香)
&first=0.019
&des=JDJDH
&clock_count=4
&lv_5=14
&inote_5=(90)
{4}
,,,,
1b<3-6V82-5z1b[8:8],,,,,,,,
(128)
{16}
6,6,4,4,5,5,3,3,
4w8[8:1],,4,,
{8}
4b,,3-1[8:1]/1-4[8:1],,3pp4[4:1],,6h[8:1],,7h[8:1],,
3>8[8:1]*p7[8:1]/8,5/4,3,,
1h[8:1]/6<7-4-8[8:4],,2h[8:1],,3h[8:1],,4h[8:1],,
8>3v8[8:2]*<5v8[8:2],1/7,8p4[8:1]*q4[8:1],,,,
{16}
3,2/4,,,5/7,6,,,4-8[8:1]/5-8[8:1],,3/6,,4/5,,,,
{24}
1h[8:1]/2x,A3,A4,A5,,,8h[8:1]/7x,A6,A5,A4,,,
1/8,,,2/7,,,3/6,,,
(96)
{4}
4bv1b[8:1]/5bv8[8:1],4b-7b[8:1]/5b-2[8:1],4b/5b,
{8}
1b/8b,2b/7b,
(192)
{4}
3b-8[4:1]*-8[4:1]/6b,
8-4b[4:1],4-7[4:1],7-3[4:1]*-3[4:1],
3>8b[4:1],8-4[4:1],4<7[4:1]*<7[4:1],
7,
{8}
8-3b[8:1],,4h[8:2]/8b,,2,2,4,4,8,6,4,2,Ch[4:1],,
1-6[8:1],,5h[8:2]/1b,,7,7,5,5,3-6[8:1],3,7-4[8:1],7,2-5[8:1],2,8-4[8:1],8,1,,
2-7[8:1]/3-6[8:1],,2b/3,,1,7,5,3,
{12}
7,5,5,5,5,5,6-3b[8:1],,,3/6,,,
2,4,4,4,4,4,3-7[8:1],,,7/3,,,
6,8,8,8,8,8,7-4[8:1]*-3[8:1],,,7,,,
{4}
1-4[4:1],4-7[4:1],7-3[4:1],3w7b[8:1],,
{12}
1b/5b,,,2/4-7[8:1],,3,3-7[8:1],,,6-1[8:1],,,4-1[8:1],,,5v4-1[8:2]*v6-1[8:2],,,C,,,
,,,1x-5[8:1],1x,1x,1x,,,7-3[8:1],,,8-3[8:1],,,6-2[8:1],,,1w5b[8:1],,,
Cf/B1/B2/B3/B4/B5/B6/B7/B8/E1/E2/E3/E4/E5/E6/E7/E8/D1/D2/D3/D4/D5/D6/D7/D8,,,,,,
3b/7b,,,6-1[8:1]/4,,5,5-1[8:1],,,7-3[8:1],,,8-3[8:1],,,4-8[8:1],,,2h[4:1],,,
1,,3/4,,5/6,,7/8,,5/6,,3/4,,2/8,,4/5,,1/6,,2/3,,5/7,,8/2,,Ch[4:2],,,,,,
(128)
{4}
E5,E3,E7,E1,
{16}
3b/4b-7[8:1],2,
{24}
,2,,
{16}
4,3,,4<7[8:1],8/4,,2,2/4,
{24}
,,3x,3x,,,
4/7,3/6,2/5,1/4,,,2/5,3/6,4/7,5/8h[8:1],,,6bh[8:1],,,4h[8:1],,,2h[8:1],,,8h[8:1],,,
6,,5/7,,4/6,,3/5,,2/4,,1/3,,C,,,,,,
1/3,,2/4,,3/5,,4/6,,5/7,,6/8,,C,,,
{16}
6/5-2[8:1],7,
{24}
,7,,
{16}
5,6,,5>2[8:1],1/5,,7,7/5,
{24}
,,6x,6x,,,
5/2,6/3,7/4,8/5,,,7/4,6/3,5/2,4/1h[8:1],,,3bh[8:1],,,5h[8:1],,,7h[8:1],,,1h[8:1],,,
4,,5/2,,6/3,,7/4,,8/5,,1/6,,C,,,,,,
8/5,,7/4,,6/3,,5/2,,4/1,,3/8,,C,,,1,,,
(220)
{4}
7-3[8:1],2-5[8:1],6-1[8:1],3-7[8:1],8-3[8:1],2-6[8:1],5-1[8:1],3>8[4:1],
8<5[4:1],5>2[4:1],2<7[4:1],7<4[4:1],4>1[4:1],,
{8}
,7,8,7,
1h[4:2]/6,6,5,5,4x,,5h[4:3]/2,2,1,1,8,8,7x,,
4/8,4/8,1/5,1/5,2/6,2/6,3/7,3/7,4x/8x,,
(128)
{4}
E1/E5,E3h[4:1],E7h[4:1],Chf[4:1],
8b-4b[4:3],4h[8:1],3h[8:1],2h[8:1],
(96)
{4}
1V35[4:1],5pp7[4:1],7>2[4:1],2-4[4:1],4w8b[16:1],
(128)
{8}
Cf/B4/B8,,2/6h[4:3],,4,5,4,5,4,3xh[4:2],5,4,5,
{16}
4x,4x,3,3,5,5,4,4,6,6,5,5,7,7,6x,6x,8x,8x,
2xh[4:2],,4x,E5,4x,E5,4x,E5,4x,E5,2x,2x,4x-8[170.66#6:1],4x,3x,3x,,,1,,
{8}
7/3h[4:3],,5,4,5,4,5,6xh[4:2],4,5,4,
{16}
5x,5x,6,6,4,4,5,5,3,3,4,4,2,2,3x,3x,1x,1x,
7xh[4:2],,5x,E5,5x,E5,5x,E5,5x,E5,7x,7x,5x,5x,6x,6x,5x,4x,3x,2x,
{4}
4bxv3-8[4:2]*V61b[4:2],,,,
{8}
7b/2bh[8:3],,,1h[8:3],,3,3h[8:3],,4,
{16}
4,3,4h[8:3],,,,5,,
5h[8:3],,,,,,6h[8:1],,5,6,5h[8:1],,
7h[8:1],,1h[8:1],,8,,2h[8:2]/E8,E7,E6,E5,E4,E3,
1b>4[8:1],,7/8,,1,,6<1[8:1],6,5,,4/6,,3,3,1x<6[8:1],2,3x,2,1x,,
4>1[8:1],4,5,,4/6,,8<5[8:1],8,1,,8/2,,3-7[8:1],3,4>5[4:1],,3x,,4x,,,,,,
(192)
{16}
3,4,3,4,3x-8[8:1],,2x,,5x-1[8:1],,6x,,2x-6b[8:1],,,,
{8}
2b-5-1[4:1],,1xqq7[4:1],8x,7x>8q4[4:1],,
4xV68[4:1],,8xpp2[4:1],,2x<1p5[4:1],,5xV31[4:1],6x,7x,8x,
8h[4:1],,x1,2,3,4>1b[8:1],5,4x/6,7<4[8:1],8,1/7x,2<7[8:1]*<7[8:1],3,2x/4,5>2b[8:1],6,5x/7,8,1,
2-6[8:1]/8,,2/4-7[8:1],,4/1,1-5[8:1],,1/7,7>2[8:1],,7/5,5>7[8:3],,1,7,5,
3h[4:1],,7,8,1,2^7b[8:1],3,4/2x,5^2[8:1],6,7/5x,8^5[8:1]*^5[8:1],1,2/8x,
3^2-8b[8:1],4,5/3x,6^5-3[8:1],7,8/6x,1,2w6[8:1],,C,,8x,4x,
{16}
6b,2,6,2,
{8}
5x-1[8:1],,5/3-8[8:1],,3/7qq1[8:3],,1,1,,2<7[8:1],3,2,
4x-8[8:1],,4/6-1[8:1],,6/2pp8[8:3],,8,8,,7,6,5,
{16}
8/4,,,1/5,,,2/6,,
(128)
{4}
3h[8:1]/7-1[8:1],4h[8:1]/7-5[8:1],2h[8:1]/7-3[8:1],5h[8:1]/7-5[8:1],
1h[8:1]/7>2[8:1],3h[8:1]/7,1/5,
6h[8:1]/2-8[8:1],5h[8:1]/2-4[8:1],7h[8:1]/2-6[8:1],4h[8:1]/2-4[8:1],
8h[8:1]/2<7[8:1],6h[8:1]/2,8/4,1/5,
(256)
{8}
3-7b[8:1],,3bx/7x,,8,8,1,1,6,3,3,5,4,7,
(128)
{4}
1b<5-3-1-7-5^4^3^2^1[4:4],,,,,,
(160)
{8}
8,1,2-5[8:1],3,2x/4h[4:1],,
(192)
{8}
6,5,4,3,2-6[8:1],1,2x/8h[4:1],,
(224)
{8}
7,8,1,2,3,4,5-1[8:1],6,5x/7h[4:1],,
(256)
{8}
8,7,6-3[8:1],5,6x/4h[4:1],,
(288)
{8}
2,3,4,5,6-2[8:1],7,6x/8h[4:1],,
(320)
{8}
1,8,7,6,5,4,3,2,1h[4:1],,
(352)
{8}
E8,E2,E6,E4,E7,E1,E5,E3,
D8/E8f,D2/E2f,D6/E6f,D4/E4f,
D1/E1f,D3/E3f,D7/E7f,D5/E5f,
(384)
{4}
,,,,
(192)
{8}
,E6,E5,E4,6,5,4,3,
{12}
8h[12:1],2h[12:1],4h[12:1],1h[12:1],7h[12:1],5h[12:1],
8h[12:1],2h[12:1],4h[12:1],6h[12:1],7h[12:1],1h[12:1],
(288)
Cf/B3/B4,,,,,,
{16}
,8,1,8,
{8}
1,7,4,3/5,7,6/8,1/5,2/E4h[104:61],
(156)
{4}
,Cf/B7/B8,E
