&title=ミライプリズム
&artist=ここなつ
&first=0
&des=bbben
&lv_6=11+
&inote_6=(140)
{4}
,,,,
{8}
,,,,,
||始まる物語
{8}
E2,E8,B2,B7,B3,B6,E4,E6,C,,
||願いを星に
{8}
E4,E6,B3,B6,B2,B7,Cf,,
||歌う
{8}
2-5[8:1],7,2,,
||ここで
{8}
7-4[8:1],2,7,
||小さな世界を
{8}
3,2,1,8,7,6h[8:2],,B8/B1/C,,
||広げて---
{8}
1pp4[8:4]/8,8h[8:2],,,6h[8:2],,,5,
||集めて---
{8}
5pp8[8:4]/4,2h[8:2],,,3h[8:2],,,4h[8:2],,
||何度でも
{8}
7h[8:2],,2,36,,26,73,
||君を探した
{8}
18,1<6[8:1]/8>3[8:1],,1q5[8:1]/8p4[8:1],,18,,,,
||願いひとつ
{8}
63,2,62,3,64,3,
||希望を君に
{8}
63,6,6h[8:3]/3,3,3,3,73,3,,
||踊る
{8}
8^5[8:1]/1,2,3,,
||ここに
{8}
1^4[8:1]/8,7,5,
||大きな未来を
{8}
5b,5b,7b,2b,3,6h[8:2],,B8/B1/C,,
||夢見て
{8}
1pp4[8:4]/8,8h[8:2],,,6h[8:2],,,5,
||歩いて
{8}
5pp8[8:4]/4,2h[8:2],,,3h[8:2],,,4,,
||find
your
way
{8}
7h[8:1]/1,1,,B2/B3/E3,,E7/B7/B6,,Cf/E1/B8/B1/B5/B4/E5,,,
||光が射す方へ
{8}
,,,,1b/2x/3x/4x/5x/6x/7x/8b,,
||can
you
hear
my
voice
and
smile
{4}
1x^4[8:2],4q1[8:2],1^4[8:2],4q8[8:2],8q4[8:2],4q8[8:2],8q5[8:2],5^8[8:2],
{4}
8q5[8:2],5^8[8:2],8^3[8:2],3^6[8:2],6^1[8:2],3,6,7b/2b,
{4}
8x^5[8:2],5p8[8:2],8^5[8:2],5p1[8:2],1p5[8:2],5p1[8:2],1p4[8:2],4^1[8:2],
{4}
1p4[8:2],4^1[8:2],1^6[8:2],6^3[8:2],3^8[8:2],6,3,7b/2b,
||もしも君の
{16},,26,,3,,5,5,,,B2/E3,,B4/B5,,,,
||足元さえ
{16},,37,,6,,4,4,,,B7/E7,,B4/B5,,,,
||照らす明かりは見えなくて
{16},,18,,27,,3,3,,,2-5[8:1],,7-4[8:1],,2,,7,,,,36,,3h[8:2]/6h[8:2],,,,,,,,C/B8/B1,,
||転びそうで
{16},,26,,3,,5-1[8:1],5,,,B2/E3,,B4/B5,,,,
||倒れそうで
{16},,37,,6,,4-8[8:1],4,,,B7/E7,,B4/B5,,,,
||道標を探すのなら
{16},,18,,27,,6,6,,,7-4[8:1],,2-5[8:1],,7,,2,,,,36,,27,,,,17,,28,,,,
||当然のことだけど
そう
{8}
8bqq5[4:5]/1,,2,2,2,2,3,3,2,2-4[8:2],,2x,,
||君へ
{8}
36,27,18,
||音楽を届けるから
{8}
1bpp4[4:5]/8,,7,7,6,6,5,6,6,7-5[8:1],7x,7x,,
||いつも最新を
{8}
4,3^1[4:1],3x,1p4[4:1],,4^1[4:1],,
||また更新中
{8}
5,6^8[4:1],4x,8q5[4:1],,5^8[4:1],,
||願いは
{8}
8,,B3/B4/E4,E6/B5/B6,,
{16}1x/8x,,1x,8x,1x,,1x,8x,,8x,1x,,1x,8x,1x,8x,
{32}1x,2x,3x,4x,5x,6x,7x,8x/1x,
||今
{8}
,,1p4[8:1]/8q5[8:1],,1b/8b/Cf/B8/B1/B5/B4,
||歌うよ
melody
{8}
6,5,4,3V14[4:1]/3pp4[4:1],3,,,,
||季節を超えて
{8}
4,5,6,6pp3[4:1]/6pp4[4:1],6,,,,
||君と
{8}
5-2[8:1]/5-8[8:1],64,5,,
||ここに
{8}
4-1[8:1]/4-7[8:1],53,4,
||小さな世界を
{8}
8,1,7,2,3<8[8:2]/6>1[8:2],36,,
,,
||夢見て
{8}
1pp4[8:4]/8,8h[8:2],,,6h[8:2],,,5,
||歩いて
{8}
5pp8[8:4]/4,2h[8:2],,,3h[8:2],,,4,,
||大丈夫
{8}
6pp1[4:2]/5p2[4:2],,,,,,,,
||特等席さ
{8}
B5/B4/E5,E1/B8/B1,,B3/B4/E4/E8/B8/B7,,B1/E2/B2/B6/E6/B5,,,
||願いひとつ
{8}
6,5,4,3V17[4:1],3,C,,,
||飛び乗れ星に
{8}
4,5,6,6V82[4:1],6,C,,
||踊る
{8}
34,78,34,,
||ここに
{8}
56,12,56,
||大きな未来を
{8}
12,34,56,78,82,7-4[8:1]/1,,B8/B1/C,,
||夢見て
{8}
1pp4[8:4]/8,8h[8:2],,,6h[8:2],,,5,
||歩いて
{8}
5pp8[8:4]/4,2h[8:2],,,3h[8:2],,,4,,
||find
your
way
{8}
7h[8:1]/1,1,,B5/B4/E5,,E1/B8/B1,,Chf[8:7]/B7/B2/B6/B3,,,
||光が射す方へ
{8}
,,,,B8/B1,,
||can
you
hear
my
voice
and
smile
{4}
1x^4[8:2],4q1[8:2],1^4[8:2],4q8[8:2],8q4[8:2],4q8[8:2],8q5[8:2],5^8[8:2],
{4}
8q5[8:2],5^8[8:2],8^3[8:2],3^6[8:2],6^1[8:2],3,6,7b/2b,
{4}
8x^5[8:2],5p8[8:2],8^5[8:2],5p1[8:2],1p5[8:2],5p1[8:2],1p4[8:2],4^1[8:2],
{4}
1p4[8:2],4^1[8:2],1^6[8:2],6^3[8:2],3^8[8:2],6,3,7b/2b,Cf/E1/B8/B1/B5/B4/E5,
,,,,,,,
E
