&title=Candy a Mine
&artist=茶太
&first=0
&des=❤冰织❤
&des_4=❤冰织❤
&des_5=❤冰织❤
&lv_4=13
&lv_5=13+
&inote_4=(116){4},,,,,,,,{1}4qq8[2:1],
8pp5[2:1],
5pp1[2:1],
1qq4[2:1],
{4}4/6h[4:3],B2,4,B2,
5/3h[4:3],B7,5,B7,
8<5[4:1],5>1[4:1],1<4[4:1],4w8[4:1],
{8},,,,4,3/6,{16}5<1[4:1],4,5,4,
{4}5,4>8[4:1],,7<4[4:1],
{16}4x>1[16:3],,,1x<6[16:3],,,{8}6x>8[8:3],,,,,{4}3h[4:1],
7,4/6h[4:1],2,
5/3h[4:1],7,2/6h[4:1],1>6[4:1],
,8<3[4:1],,2<7[4:1],
{16}7x<4[16:3],,,4x>1[16:3],,,{8}1x<2[8:3],,,,,{4}6h[4:1],
2,6/4h[4:1],8,
3/5h[4:1],1,5/3h[4:1],7,
8b,3V51[8:3],,6V84[8:3],
,1V37[8:3],,8q2[8:3],
,6V48[8:3],,3V15[8:3],
,8qq5[2:1],,4v1[16:3],
,6V84[8:3],,3qq5[2:1],
,6pp4[2:1],,2z6[8:3],
,8s4[8:3],,1-5[8:1],
1-7[8:1],1-3[8:1],1-5[8:1],1,
7b,2-4[8:1],6-4[8:1],2-8[8:1],
6-8[8:1],4-1[8:1],5-8[8:1],2pp5[8:3],
6-8[8:1],6v1[8:1],3v8[8:1],7<4[8:1],
2V41[4:1],{8}7,7-4[8:1],,2q5[8:3],,,,,7<3[4:1],
4,,2,1-3[8:1],8-4[8:1],
1-5[8:1],8-6[8:1],,,,4,3-6[8:1],2,
{4}3/7-2[8:1],7/1-5[8:1],1/7-3[8:1],7/2V46[4:1],
{8}2,,,7p4[8:3],{2}8>4[4:1],
{8}A4f,,,4/3,7,5/6q1[8:3],{4}2-4[8:1],
2-7[8:1],2-5[8:1],2-6[8:1],2-4[8:1],
{8}7-3[8:1],8,1q5[8:1],2,{4}7q1[4:1],7,
2h[4:1],1h[4:1],8h[4:1],{32}7h[16:3],,,,,,,6x,
{8}5x,,,5/6,2,4/3p8[8:3],7,8,
{4}7<4[8:1],7-2[8:1],7-5[8:1],7-4[8:1],
7/2-6[8:1],2/8p4[8:1],8/2V41[4:1],{8}2/6>7>6[1:1],6,
{1}6,
{2}3h[4:3],{8}6,5,{16}5-1[8:1],4,{8}5,
{4}5b/4bqq1[8:3],4/8-5[8:1],8>3[8:1],8qq4[8:3],
{8}8<2[4:1],,,,,5,4-1[8:1],{16}3,5,
{4}4qq5[8:3],4/8-5[8:1],8<3[4:1],8/3<1[4:1],
{16},,,,,,5,4,{4}5pp5[4:1],5<3[4:1],
{2}3pp2[4:1],{4}1pp1[4:1],1>7[4:1],
7qq4[8:3],,,7>4[4:1],
4<1[4:1],1qq2[4:1],2>5[8:1],4-7[8:1],
4-2[8:1],4-6[8:1],4-1[8:1],4-8[8:1],
4b/5bpp8[8:3],5/1-4[8:1],1<6[8:1],1pp5[8:3],
{8}1>7[4:1],,,,,4,5-8[8:1],{16}6,4,
{4}5pp4[8:3],5/1-4[8:1],1>7[4:1],1/7<1[4:1],
{16},,,,,,4,5,{4}4qq4[4:1],4>6[4:1],
{2}6qq7[4:1],{4}8qq8[4:1],8<2[4:1],
2pp5[8:3],,,2<5[4:1],
5>8[4:1],8pp7[4:1],7<3[4:1],3w7[16:3],
{8},,,Ch[8:3],,,{4}8xw4[1:2],
{1}8b,
E
&inote_5=(116){4},,,,,,,,{1}3qq5[2:1],
6pp4[2:1],
3qq4[2:1],
5pp4[2:1],
{4}3>8[8:1],4p7[8:1],{2}1p4[8:1],
{4}6<1[8:1],5q2[8:1],{2}8q5[8:1],
{4}2>7[4:1],7>4[4:1],{2}4-8[8:1],
{8}8b/Cf,,,5-1[8:1],,,,,{4}7<4[8:1],
2-6[8:1],6<1[8:1],5-2[8:1],
7<4[8:1],2-6[8:1],6<1[8:1],1-5[8:1],
5<8[8:1],8-4[8:1],4<7[8:1],7-3[8:1],
3<6[8:1],6-2[8:1],2>5[8:1],5-1[8:1],
2>5[8:1],7-3[8:1],3>8[8:1],4-7[8:1],
2>5[8:1],7-3[8:1],3>8[8:1],8-4[8:1],
4>1[8:1],1-5[8:1],5>2[8:1],2-6[8:1],
6>3[8:1],3-7[8:1],7<4[8:1],4-8[8:1],
{2}2>6[8:1],1qq7[8:1],
7<3[8:1],8pp2[8:1],
4q1[8:1],5<8[8:1],
5p8[8:1],4>1[8:1],
7p3[8:1],2v8[8:1],
2q6[8:1],7v1[8:1],
2>5[8:1],6<1[8:1],
{4}4<7[8:1],4>1[8:1],{2}4-8[8:1],
{4}2>5[8:1],1v6[8:1],8>3[8:1],7v4[8:1],
6<1[8:1],5v2[8:1],{2}4<7[8:1],
{4}3>8[8:1],4v7[8:1],5>2[8:1],6v1[8:1],
7<4[8:1],8v3[8:1],{2}1<6[8:1],
{4}4<7[8:1],3q8[8:1],2>5[8:1],1q6[8:1],
8>3[8:1],7q4[8:1],6<1[8:1],5-3[8:1],
5-7[8:1],5-2[8:1],5-8[8:1],5-1[8:1],
5pp8[8:3],5qq2[8:3],,,3-5[8:1],
{8}3-8[8:1],7-4[8:1],{2}7>2[8:1],
{4}6>6[8:5],8-5[8:1],{2}8-3[8:1],
{8}5-7[8:1],4-8[8:1],,,{4}7p5[4:1],4>2[8:1],
4-1[8:1],4q8[8:1],{2}4<7[8:1],
{4}6-4[8:1],{8}6-1[8:1],2-5[8:1],{2}2<7[8:1],
{4}3pp7[8:5],1-3[8:1],{2}1-7[8:1],
{4}4qq4[4:1],4q5[4:1],{2}5qq7[4:1],
{4}8<4[4:1],4>4[8:3],{8},,,,Ch[2:1],
,,,,5V74[4:1],{4}2-4[8:1],
2b-8[8:1],{8}2-4[8:1],6-4[8:1],2-8[8:1],6-8[8:1],2-5[8:1],6pp4[8:3],
2qq4[4:1],,,,,4V25[4:1],{4}7-5[8:1],
7-1[8:1],{8}7<4[8:1],3v8[8:1],{2}7p6[4:1],
{4}3pp8[4:1],{8},,,,7<4[8:1],4p7[8:1],
{2}7qq4[4:1],{4}2<8[8:1],{8}2>5[8:1],5q2[8:1],
{2}2pp5[4:1],{4}7>1[8:1],7<3[4:1],
{8}3>5[8:3],,,5-1[8:1],,1-5[8:1],,,4w8[4:1],
,,,,4V25[4:1],{4}7-5[8:1],
7b-1[8:1],{8}7-5[8:1],3-5[8:1],7-1[8:1],3-1[8:1],7-4[8:1],3qq5[8:3],
7pp5[4:1],,,,,5V74[4:1],{4}2-4[8:1],
2-8[8:1],{8}2>5[8:1],6v1[8:1],{2}2q3[4:1],
{4}6qq1[4:1],{8},,,,2>5[8:1],5q2[8:1],
{2}2pp5[4:1],{4}7>1[8:1],{8}7<4[8:1],4p7[8:1],
{2}7qq4[4:1],{4}2<8[8:1],2>6[4:1],
{8}6<4[8:3],,,4-8[8:1],,8-4[8:1],,,{4}5-1[8:1],
5V71[16:3],5V31[16:3],5w1[1:2],
{1}5b,
E
