&title=白ゆきの独白
&artist=n-buna
&first=0
&lv_5=11
&des_5=软糖酱
&inote_5=
(65){4},{8},1-4[32:3],3,7,{4}8,
{8},8-5[32:3],6,2,{32}3V17[32:3],4,3,4,{8}3,3,6V42[32:3],
,,{4}1V75[32:3],{128}4,,,,,,,,,,,,,,,3,{8}4h[8:3],{4},{128}5b,
{4},{16},{64},,,{128}6,{8}5h[8:1],1-5[32:3],{128}8,,,,,,,,,,,,,,,1,{4}2h[8:3],
{8},8>3[32:3],4,5h[4:1],4h[4:1],,,8>2[32:3],
3,7,{4}5-1[8:1],{8}5,5h[8:3],,,8,
{16}7,4,6,5h[128:55],{8}4h[8:3],,,,,,3/5h[16:1],
{4}5h[16:1]/4qq1[16:7],{8}4/5h[16:1],6h[16:1],,7h[16:1],
{4}8h[16:1]/1pp4[16:7],{8}1/7h[16:1],6h[16:1],,5h[16:1],{4}4h[16:1]/5pp8[16:7],
{8}5/3h[16:1],2h[16:1],,1h[16:1],{4}1h[16:1]/8qq4[4:1],2b,
{16}3,3,{8}6/4h[16:1],{4}4h[16:1]/5pp8[16:7],{8}5/4h[16:1],3h[16:1],,2h[16:1],
{4}1h[16:1]/8qq5[16:7],{8}8/2h[16:1],3h[16:1],,4h[16:1],{4}5h[16:1]/4qq1[16:7],
{8}4/6h[16:1],7h[16:1],,8h[16:1],{16}1-5[32:3],8h[16:3],,,{8}1b-5[32:3],1,
1b,{16}3b>8[16:7],4,5,6,3,4,5b,6,2,4,3,5,6b<1[16:7],5,
4,3,6,5,4,3,7,5,6,4,3b>7[16:7],4,5,6,3,4,
5b,6,3,5,2,4,6b<2[16:7],5,4,3,6,5,4,3,6,4,
7,5,4b-8[16:7],6,5,7,5,6,5b,8,5,7,4,6,5b-1[16:7],3,
4,2,4,3,4,1,4,2,5,3,8b-4[16:7],2,1,3,1,2,
1b,4,1,3,8,2,1b-5[16:7],7,8,6,8,7,8,5,8,6,
1,7h[#0.2307739],(45),(50)4,(45),5,3,(65),6,(55),{8}4,{16},5h[16:3],,,{8}3h[#3.002472],
(51),{16},6h[#1.574661],,,(65){2},
E
