&title=我的未来式
&artist=爱情公寓
&first=0.01
&des=爱给公寓
&clock_count=4
&lv_5=给
&inote_5=(158)
||noka
{4},{8},,,,,,3,
2-4[8:1],,6,6,7-5[8:1],,3,
3,2q4[8:3],{4}5,{8},,,,6,
7-5[8:1],,3,3,2-4[8:1],,6,
6,7p4[8:3]*pp3[8:3],{4}5,{8},,,,3,
4-2[8:1],,6,6,5-7[8:1],,3,
3,4qq5[8:3],{4}5,{8},,,,6,
5-7[8:1],,3,3,4-2[8:1],,6,
6,5pp8[8:3]*qq2[8:3],{4}4,,,
||chieko
{4}1/2-4[8:1],
2/4,5/7-5[8:1],8/7,
{8}3,4-8[8:1],2,4>1[8:1],,4<7[8:1],,1,
{4}1<7[8:1]*>4[8:1],1,6/5h[4:1],{8}4,4<7[8:1],
,1,{4}3>8[8:1],3/8,5/6,
8/7-5[8:1],7/5,4/2-4[8:1],1/2,
{8}6,5-1[8:1],7,5<8[8:1],,5>2[8:1],,8,
{4}8>2[8:1]*<5[8:1],8,3/4h[4:1],{8}5,5>2[8:1],
,8,{4}6<1[8:1],6/1,
||TailR
{16}2,1,2,1,
{8}3b-5[32:3],,5,,7-4[8:1],4,4,,
{8}3-1[32:3],,1,,8-3[8:1]*-5b[8:1],1/7,,,
{8}3-5[32:3],,6,,7-3[8:1],5,5,,
{8}4h[4:1],8,7-4[8:1],6/4V62[64:15]*V61b[64:15],,,,,
{8}8b-4[8:1],,8/4,,3h[4:1],5,5,2bqq3[4:1]/6,
{8},7,6,5bpp4[4:1],,1,2,3bV15b[4:1],
{8},6,6h[4:1],,4,3/7,3/7,2-6[8:1]/8,
{8},4x,A8f/E8/B8/E1,,,,
||neya
{32}4/5,3,2,1,8,7,6,5,
{8}4bx/7bx-4[8:1],,78,1bx^6[8:1],,4^1[8:1]/1,,4bx-8[8:1]/6bx,
{8},2-5[8:1]/4-7[8:1],,24,,56,4x/7x,,
{8}1bxp5[8:1]/2bx,,13,2bx^5[8:1],,7,7,8bx^5[8:1],
{8},3,3,26,1x/7x,,
{32}5/4,6,7,8,1,2,3,4,
{8}5bx/1bx-5[8:1],,18,7bx^2[8:1],,4^7[8:1]/7,,3bx-8[8:1]/4bx,
{8},5-8[8:1]*-2[8:1]/3,,5,,21,3x/8x,,
{8}5bx-1[8:1]/6bx,,75,6bx^3[8:1],,2,1,8bxV25[8:3]/4bxV61[8:3],,,,
||Esc
{8},,,
2<3b[8:3],,6h[8:4],,,,
{12}2h[12:2],,3h[12:2],,4,,
{12}7h[12:2],,6h[12:2],,5,,
{8}3h[8:1],4h[8:1],5<3[8:2],6h[8:2],D6f,,,7,
6-4[8:1],6,2-5[8:1],2,7-3[8:1],7,2qq5[8:3],2,7h[8:2],,,,
8h[8:1],5h[8:1],6pp4>6[8:5],3h[8:5],,,,,,,1pp4[8:4],,,
{16}4h[8:1],,,6h[8:1],,,8>7[8:3],,,,,,
||sox
,,1h[8:1],,,2h[8:1],,,3,,
{16}48,,4,,46,,4,,34,,4,,48,,5,5,
{8}8b-4[8:1],,3/8,,2-4[8:1]/5,1,6,,
{8}5-1[8:1]/7,,65,,7-5[8:1]/4,8,3,3,
{8}2-4[8:1]/4-8[8:1],,2/4,,17,,6,5/7h[4:1],
{8},1,26,6,56,6,86,,
{8}1b-5[8:1],,6/1,,7-4[8:1]/4,8,3,,
{8}4-8[8:1]/2,,34,,2-5[8:1]/5,1,6,6,
{8}5-1[8:1]/7-4[8:1],,57,,2b/8,4b/6,1b/7,3b<2[32:9]/5,
{8},7,7-3[8:1]*-4[8:1],,7b,,{16}2,5,2,5,
||gay
{8}1,2h[4:1]/6,,{24}8b,7b,6b,5b/3bpp6[8:3],,,,,,{8}B5/B4/E5f,,
{16}8,,8h[4:1],,,,5,7,1w5[8:1],,1,,,,,,
{8}8,7h[4:1]/3,,{24}1,2,3,4/6-3[16:2],,,6,,,1,,,,,,
{8}2/8,2/8,3/4,5/6,{12}4/7,4/7,4/7,{32}4/7-3[8:1],3,2,1,8,7,6,5,
||0wd
{8}4x`B7/B3`Cf,,2,2>5[8:1],,2/7,8,1>4[8:1],,1/6,7,8-4[8:1],,
8/5w1[8:1],,5,,37,3-7[8:1]/7,,8b,6b,4b,2b,,8b/1b,6bw2b[8:1]/5b,,,,
{4}84,{32}8b/4b-8[8:1],73,62,51,{8},1,1b>4[8:1],,7-2[8:1],7,5b-1[8:1],
{8},8<5[8:1],8,2,2,4,3,1,
{8}2b/8b,7-3[8:1],5,7b/4b<7[8:1],,2/4>1[8:1],3,4b/8b-4[8:1],
{8},6/8<1[16:4],7,8/Cf,,,
||Nikaidou
Anshin
a.k.a.
p-
yi
chuan
shi
gay
{16}48,,{32}48,37,26,15,
{8}4b/8b>3V52[16:5],,5,6<3-5[16:5],,6,,1pp6[16:5],
{8},17,,5w1[8:1],,,,3,
{8}4bq7[16:5]/7b,6,42,1b,,2,3,4h[2:1],
{8}8,8,8,8,{12}3,3,3,8,4,6,
{8}2qq5[2:1],,,,6,,,,
{8}64,7<4[16:3],,4,3,2h[8:3],,1,
||pig
out
and
imris
out
and
neya
out
and
gays
{8}8<5[8:1],8,3,2,1>4[8:1],5,1,6<4[4:1],
{8},3,3h[4:1],,
{32}E6,E7,E8,E1,E2,E3,E4,E5f,
{8},,7bV51[16:3]/8b,,2,1,8>3[8:1],,6/8<5[8:1],,
{8}8/4,2-5[8:1]b*-6[8:1]b,,2,,3x/7x,2,1/8-5[8:1],,48,2-6[8:1],7,2,1,28,37,4pp1[16:7]/6qq1[16:7],,,,,,,46,4pp1[16:7]b/6qq1[16:7]b,,,,,,,,
||爱给之电动车
{8}2V85[8:3],{16},,3-7[8:1],,,,,,,,
{8}7pp8-5[8:4],{16},,4h[8:2],,,,,,,,
{8}8>5-8[8:3],{16},,6,,,,7bx,,7bx,,
{8}E3h[16:1],E5h[16:1],E4h[16:1],E6h[16:1],E5h[16:1],E7h[16:1],E6h[16:1],E8h[16:1],
{16}E1,E2,E3,E4,E5,E6,E7,E8,E1/Cf,,,,
{8}1^6^4v6[8:4],{16},,3h[8:2],,,,,,,,
{8}3-1^8-6[8:4],{16},,2-7[8:1],,,,,,,,
{8}2v5v8[8:3],{16},,6,,,,7bx,,7bx,,
{8}E3h[16:1],E5h[16:1],E4h[16:1],E6h[16:1],E5h[16:1],E7h[16:1],E6h[16:1],E8h[16:1],
{16}E1,E2,E3,E4,E5,E6,E7,E8,E1/Cf,,,,
||cqxl
{16}
7/1h[4:1],,,,4,,,,5-7[8:1]/3-1[8:1],,,,,,,,
{16}
2/8h[4:1],,,,5,,5,,4-2[8:1]/6-8[8:1],,,,,,,,
{16}
7/1h[4:1],,,,4,,4,,5-7[8:1]/3-1[8:1],,,,,,,,
{16}
2,,8,,3,,7,,4-2[8:1]/6-8[8:1],,,,,,,,
{16}
7/1h[4:1],,,,4,,,,{24}5-7[8:1],3-1[8:1],5,3,,,{16},,,,
{16}
2/8h[4:1],,,,5,,5,,{24}4-2[8:1],6-8[8:1],4,6,,,{16},,,,
{16}
7/1h[4:1],,,,4,,4,,{24}5-7[8:1],3-1[8:1],5,3,,,{16},,,,
{16}
2,,8,,3,,7,,{24}4-2[8:1],6-8[8:1],4,6,,,{16},,,,
||angolos
{16}
2b>8[4:1],3,4,,,,1,,1h[4:1],,,,7,,5,,
{16}
7-3[8:1]b,,3V16[4:1],,7,,,,4,,,,4/5,,,,
{16}
7b<1[4:1],6,5,,8,,8,,8h[4:1],,,,2,,4,,
{16}
2-6b[8:1],,6V48[4:1],,2,,,,7b,,,,,,,,
||imris
{8}
1V38[8:2],,8-4[8:1],4-7-5[8:2],,5V31[8:2],,1V74[8:2],,4>5[8:2],,5pp3[8:3],,,,,
{8}
8V61[8:2],,1-5[8:1],5-2-4[8:2],,4V68[8:2],,8V25[8:2],,5<4[8:2],,4pp8[8:3],,,,,
||nan
ren
lei
le
{8}
1>4[4:1],,{24}4,5,6,,,,8V64[4:1],,,{8},,{16}3,,1pp8[8:3],,{8},5,,7h[128:1],,,,
{8}
8<5[4:1],,{24}5,4,3,,,,1V35[4:1],,,{8},,{16}6,,8qq3[8:3],,{8},4,,2h[128:1],,
||
panpaniuasioabwuweuhjdvh
{32}1,2,3,,7,6,5,,8b,,,,,,,,28,,,,28,37,46,,,,,,37,46,5,,,,,,62,53,4,,,,,,17,26,35,,,,,,8,17,2/6p1[16:3],35,4q1[16:2],,,,,,,,,,,,,,,,2p5[12:5]/8q5[12:5],,,,,,,,,,,,,,,,,,,,,,,,,,,,{8}7b,,4,4h[16:4],,6h[16:2],5h[16:2],
{16}
1-5[8:1],48,37,62,{24}1b<6[8:1],,,,,,5,4,3,2b-6[8:1]*>5[8:1],,,,,,2-8[8:1],,,,,,7b-3[8:1],,,,,,3<6[8:1],,,,,,1,,,,,,{8}28,37,{24}7,6,5,{8}4b-8[8:1]/2,1>4[8:1],4,1b<6[8:1],,5-1[8:1],4,3b,,4-7[8:1]/8-3[8:1],26,4b/8b,,,{16}8-4[8:1],4,6,5,{24}8b>3[8:1],,,,,,4,5,6,7b-3[8:1],,,,,,7-5[8:1]/4-8[8:1],,,,,,4b/7b,,,,,,{24}1<6[8:1]/6,2,3,4,,,{8}1b/5b-1[8:1],3<6[8:1],5,3,8,1b/7b,{24}2,4,3,4,,,{32}5b>2[8:1]/2b,6,7,8,,,,,{8}1b-5[8:1]/5b<8[8:1],7,1b/5b,,34,28,6,34,12,{8}7p3[8:1]/8q4[8:1],56,7b/8b,
||IX未来
{8},2h[4:1],4,4,3,5,2-4[8:1],
,5-2[8:1],6,7h[4:1],,1V35[8:1]*q6[8:1],,,,,7h[4:1],
5,5,6,4,7-4[8:1],
,3-7[8:1],2,1h[4:1],,8,7qq5[8:1]/2pp4[8:1],6/3,
,,2,4h[4:1],3,3,6,5h[4:1],
7,7,4,6>4[8:1],,1>4[8:1],,1<5[8:1],
8b,{24},,,,,,1b/5,2,3,{96},,,,,,,,,,,,{32}8b/3,7,6,5,,,,,7b$/1b,2b,3b,4b,
{16}5b,
||p一串
{16},,,,,,,,,,,,,,,,
{16},,,,,,,,,,,7!^8-5q4[8:29],,,,
{16},,,,,,,,,,,,,,,,
{16},,,,,,,,,,,,,,,,
{16},,,,,,,,,,,,,,,,
{16},,3!^4[8:1]b,,,,,,,,,,,,,,(158)
