&title=グルーミング・グルーガール
&artist=みちる
&first=0.04
&des=GLue
&clock_count=4
&lv_5=13
&inote_5=(164)
{1},,
{8}5,,5,,5,,5,,6,,6,,6,,6,,
E3/E6,,E7/E4,,E2/E6,,E8/E4,,E1/B8/E5/B4,,E3/B6/B2/E7,,
2x^3^4[8:1]/8x^7^6[8:1],,,,
{16}5,,3,4,2,,6,5,7h[8:1],,5,6h[8:1],,4,,5,
2,,4,,5/6qq4qq2[8:3],,7,,4h[8:3],,,,,,,,
3,8,3,8,3^6[8:1],,2v7[8:1],,,,,,4,,4,,
6,5,7,5,6h[8:1],,5h[8:1],,4^2^8b[16:3],,,,,,,,
4bx-7[8:1],,,,1bx-6[8:1]/4bx,,,,4bx-8[8:1]/1bx,,,,,,,,
1x/7x,,3,4,3,,2h[8:2],,8,,7,,4-7[8:1],5,,
3h[8:1],,,2,,1,,1h[8:2],,8,,7,,4^7[8:1],5,,
3h[8:1],,,2,,1,,1,,25,,3,,64,,85,,
1bx-6[8:1],,,,4bx-7[8:1]/1bx,,,,1bxs5[16:3]/4bx,,,,,,,,
1,,2,2,4,,3h[8:1],,4,,5,,6^1^4[8:3],,7,,
8h[8:3],,,,,,,,8-4[8:1]*-2[8:1],,,,,,,,
3x,,,,2x,,,,1xh[8:2],,,,{96}E7,E6,,,,,,,,,,,,,,,,,,,,,,,
{16}1/6-1[8:1],,8,,6h[8:1],,,,8/3-8[8:1],,1,,3h[8:1],,,,
8-5[8:1],,7,,5,,3,,2h[8:1]/4h[8:1],,,6h[8:1]/5h[8:1],,,1/7^5^3[8:2],,
,,3,,2,,1,,8-3[8:1],,,5,,,7-4b[8:1],,
,,4,,3,,2,,1q6[16:3],,,,8,,,,
4/7,,,6,5v2[8:1],,8,,2/5,,,3,3,,4,,
5-3[16:1],,,7V51[8:2],,,7,,,,2,,2-5[8:1],,,,
7^2[8:1],,,,5,,4-1[8:1],,,,6-3[8:1],,,,2V83-5[8:3],,
,,8,,5,,6,,7-3[8:1],,,,7s3s7[8:10],,,,,,,,,,,,,,,,,,,,
,,,,,,,,5xqq3[16:3]*v4[16:3],,,,,,,,
6bx^8^3[8:2],,,,,,5^2^7[8:3],,5h[8:4],,,,,,,,
,,4,,3,,1,8,2-4[8:1],,2-6[8:1],,,,,,
3x^1^6[8:2],,,,,,4^7^2[8:3],,4h[8:4],,,,,,,,
,,7,8,7,,6v4[16:3],,1,,2,,3-8[8:1]*-7[8:1],,,,
3bx^1^6[8:2],,,,,,5^7^2[8:3],,5h[8:4],,,,,,,,
,,5,,6,,7,1,8-5[8:1],,2-7[8:1],,,,,,
6x^8^2[8:2],,,,,,2,,4z8[8:2],,,,,,,,
7x-5[8:1],,,,8-4[8:1],,,,1h[8:2],,,,B6,,,,
6h[8:1]/5-3[8:1],,,,6h[8:1],,,,2-4[8:1]/6h[8:1],,,,6h[8:1],,,,
7h[8:1]/5-2[8:1],,,,7h[8:1],,,,7h[8:1]/1-4[8:1],,,,7h[8:1]/1x^2qq7[8:6],,,,
6h[8:1],,,,5h[8:1],,,,4h[8:1],,,,5h[8:1],,,,
6h[8:1]/4h[8:1],,,,5h[8:1]/3h[8:1],,,,8-5b[8:1]/4-1[8:1],,,,,,,,
62,,7,5,6,,7h[8:1],,1,,2,4,3,,3h[8:1],,
5,,6,5,7,,8h[8:1],,2,,3,4,3-6[8:1],,,,
7-2[8:1],,,,4-1[8:1],,,,8,,5,,6-1[8:1],,4,,
3-8[8:1]/6,,,,3/5-1^3[8:2],,,,7/5,,,E8f,,,,,
4b-7[8:1],,,,1b-6[8:1]/4b,,,,4b-8[8:1]/1b,,,,,,,,
1x/7x,,3,4,3,,2h[8:1],,7,8,6,1,5-8[8:1],5,,
4,5,,3,,2,,1h[8:1],,7,8,6,1,5V71[8:2],5,,
4,5,,3,,2,,2,,17,,6,,53,,42,,
1b-6[8:1],,,,4b-7[8:1]/1b,,,,1bs5[16:3]/4b,,,,,,,,
8,,7,7,5,,6h[8:1],,5,,4,,5/3^8^5[8:3],,2,,
1h[8:3],,,,,,,,1-5b[8:1],,,,,,,,
6x,,2,2,8p1[8:2],1,7,2,8x,,,,,,,,
{16}8/3-8[8:1],,1,,3h[8:1],,,,1/6-1[8:1],,8,,6h[8:1],,,,
1-4[8:1],,2,,5-8[8:1],,6,,2h[8:1]/5,,,3h[8:1],,,8/2^4^6[8:2],,
,,6,,7,,8,,1-5[8:1],,,5V72b[16:5],,,1,,
,,2,,3,,4,,5-1[16:2],,,,75,,,,
8/2,,,6,5-8[8:1],,8,,2/5,,,3,3-7[8:1],,5,,
3/7,,,8V62[8:2],,,8/1,,,,4,,4-8[8:1],,6,,
7^2[8:1],,7,,5,,4-1[8:1],,,,4/6-2[8:1],,,,2/6bxV48[8:2],,
,,1,,2,,3,,4w8[8:1],,53,,4,,,,
2/6,,3,3,4,,28,,7,7,5,,3^6^1[8:2],4,1,,
6h[8:2]/3,,,,,,7,7,2,4,3,5,4-6-3[8:2],5,2,4,
1h[8:2],,,,,,2,2,,7,5,6,4,5,3,4,
2-8[16:1],,,6x-2[8:1]/2x,,,6x/4xqq8[16:5],,,,7,,7,,,,
7bx,,2,1,2,,3h[8:1],,5,,1,8-4[8:1],5,6,,4x,
,,3,5,1h[8:1],,7,2,5,5,,2,2^4^5b[64:7],,4h[8:5],,
,,{48}E6,E7,E8,E1,E2,E3,{16}E4f,,,,2,8,3,5,4,6,8,7,
{24}2x,3x,4x,{16}8,8,2,5,4,7,3-6[8:1],6,1,4,Ch[8:1],,,,
B6,,,,B6,,,,B6,,,,B6,,,,B6,,,,B6,,,,B6,,,,B6,,,,B6,,,,B6,,,,B6,,,,B6,,,,
B6,,,,B6,,,,B6,,,,1b,,,,
6xh[384:1]/1,,,3,6xh[384:1],,4,,7xh[384:1]/2,,,7xh[384:1]/4,,,5/7xh[384:1],,
1,,6xh[384:1],3,6hx[384:1],,5,,7xh[384:1],,4,7hx[384:1],4,,7hx[384:1]/2,,
1bx-5[8:1]/6bx-8[8:1],,,,,,,,8bx-4[8:1]/4bx-2[8:1],,,,,,,,
1h[8:3],,,7v5-3[16:5],,,,,,,,,,,,,
2bh[8:2]/A7/A6f/D6/D7/B7/E7/B6/E6/A5,,,,,,,,
1b-5[16:1],,,1b/7b-4[16:1],,,7b^2^4^6[8:3]/3b,,
,,,,,,,,1-5b[8:1],,1,,Cf,,,,
37,,2,1,2,,3,,7-2[16:1],,,7/3-6b[16:1],,,3/8,,
,,7,,3,4,3,,5-1[16:2]/3^8[8:1],,,,35,,,,
8/2,,,4,6-2[8:1],,2,,6/1,,,3,3v8[8:1],,4,,
6/3,,,5V73[8:2],,,5/3,,,,1,,1-5[8:1],,7,,
6-3[8:1],,6,,8,,1-4[8:1],,,,1/7-3[8:1],,,,3/7bxV15[8:2],,
,,4,,3,,2,,1bxw5b[8:1],,3bx/7bx,,1bx,,,,
7^5^3[16:3]/1,,8,,7/5x-1[8:1],,,,5,,,,7^5^3[16:3]/1,,8,,
7/5x-1[8:1]*-2[8:1],,,,5,,,,83,,83,,7^5^3[16:3]/1,,8,,
7/5xw1b[8:1],,,,5,,,,37,,1,,87,,6,,
4-8[8:1],,3,,7-5[8:1],,6,,1h[8:2],,,,5,,{32}3x/7h[8:6],4x,5x,6x,
,8x,1x,2x,3x,4x,5x,6x,,8x,1x,2x,3x,4x,5x,6x,
,8x,1x,2x,3x,4x,5x,6x,7xqq1b[8:3],8x,1x,2x,3x,4x,5x,6x,
{16}Cf,,,,,,,,,,2h[8:1],,4,,65,,
7-4[8:1],,8,,3,,2-7[8:1],,,,2/5-1[8:1],,,,5/3V14-6[8:3],,
,,8,,4,,6,,7-3b[8:1],,,,7^2v4b[8:10],,,,,,,,,,,,,,,,,,,,
,,,,,,,,6xqq4b[16:3]*v5b[16:3],,,,,,,,
{12}8bxh[8:2]/2bx,,,3,5,4,7bh[12:2],,5,5-1[8:1],,2,
2,,,3,4,2,6,5,7,1qq7[16:3],,,
1/3,,,4,4,6,7b-4[8:1],,2,1b-5[8:1],,7,
7,,6,2,1,3,7,8,6,1v4[8:1]/5v8b[8:1],,,
{16}1b/5b,,,,7h[8:2]/3,,,,2v5[8:1],,2,,5,,6,,
7^4[8:1],,7^8^2[8:1],,7x,,7x,,,,5,,6,,7,,
8qq6[16:3],,8,,2pp4[16:3],,2,,1xp6[8:3],,,,,,,,
3x,,,,2x,,,,1/5,,15,,3x^4^5^6^7[8:1],,7x^8^1^2^3^4^5^6^7b[8:2],,,,
