&title=welcome to the space(feat.Jisun)
&artist=Pory
&first=0.085
&des=azuki
&lv_5=12
&inote_5=(135)
{1},
{8}8/2>1[8:11],,,,,,,,
{8}7>6[8:11],,,,,,,,
{8}4<3[8:11],,,,,,,,
{8}6,,6,7,,7h[8:2],,5,
{8}3h[8:3],,4,6h[8:3],,5,4,3,
{16}24,,,57,,,1<6[8:1]/8>3[8:1],,18,,,,,,,,
{8}8/7h[8:2],,2h[8:1],1q5[8:1],,8,,6,
{16}75,,,24,,,36,,4w8[8:1]/5,,,,,,,,
{8}2/6-8[32:3],,2,2-4[32:3],,6-8[32:3],,1,
{16}2-5[8:1],,,,6h[16:1],,6-1[8:1],,,,2,,3,,4,,
{16}75,,6,,24,,3,3h[16:5],,,1,,4h[16:4],,1,,
{8}2>5[8:1],,8,6<1[8:1],,4,,3,
{8}12,12,43,43,56,56,87,87,
{16}2,2,5,5,3,3,7,7,4,4,8,8,1,1,6,6,
{8}4bpp6[16:15],,,,,,,,
{16},,,,
,,,,
{24}3,4,5,6,5,4,3,,,4,5,,
{16}3h[8:1]/4,,,8/7h[8:1],,,2h[8:1]/3,,
6h[8:1],,5-3[16:1],,7,7,,,
{16}1h[16:3],,2,2,1h[16:2],,2,,38,,4h[4:1]/7,,6,,5-1[8:1],,
{16},,1-5[8:1]/5,,,,1/5-1[8:1],,
,,,,2h[16:1],3h[16:1],4h[16:1],5h[16:1],
{16}6,,,5,56,,6,6,5p3[32:7],,7,,,,,,
{16}8h[8:1],,,1h[8:1]/7h[8:1],
,,2/6-3[16:1],,
26,,,,
2
,4h[32:1],4h[32:1],4h[32:1],
{16}3h[8:1]/5h[8:1],,,4h[8:1]/6h[8:1],,,3/5,,4p8[8:1],5,,5,4,,7,7,
{16}8,,6,5,,7,8-3[16:1],,1,,1,,2,,34,,
{16}2h[8:1]/5h[8:1],,,7h[8:1]/4h[8:1],,,45,,{24}6,5,4,3,4,5,6,,,5,4,,
{16}5>3[32:3]/6,,,,6,,,,2>5[8:1]/7,,,,7,,,,
{16}7/6>1[8:2],,,,1,,1q6[8:2],,,,8,,8,,,,
{16}7h[8:1],,8,,6,,4,5,4-8[8:1],,3,,2>6[8:1],,1,,
{16}8,,,7,7,,8,7,8-4[8:1],,1,,2,,3,,
{16}3/4-6[32:3],,,,3,,,,7-4[8:1]/2,,,,2,,,,
{16}2/3V58[8:2],,,,8,,8V25[8:2],,,,3,,3,,,,
{16}2h[8:1],,1,,3,,6,1,8,,27,,36,,45,,
{16}18,,,1h[16:1],2,,8h[16:1],7,,,18,,1,24,,8,
{8}7q2[4:6]/5,,,,4,,,,
{8},,5,,4,,,,
{16}7q2[4:6],,,7,,,5,,4,,,,,,,,
{8}5,,,,4,,,4,
{8}7q2[4:3],,,,6p3[4:3],,,,
{8},,1,,
8,,7,7,
{16}6h[8:3]/5,,,,5,,4,,3h[1:1],,,,4,,4,,
{16}2,,,1,,
,8,,8,
7,6,5,{24}4,3,2,
{24}1,8,7,
6,5,4,{32}8,1,2,3,4,5,6,7,8,1,2,3,{24}6,5,4,3,4,5,6,,,
{16}7,8,
{16}5b/6b,,,6,5,,1,,34,,7,8,7,,56,,
{16}3,,25,,1,,34,3/4h[16:3],,,1,,36,,8,,
{16}75,,6,,24,,3,3h[16:5],,,1,,4h[16:4],,8,1,
{8}2>5[8:1],,28,{16}6<1[8:1],6,{8},4,3,{16}3,1,
{8}2h[8:3],,4,7h[4:1],,{16}5,6,{8}4,3,
{16}2<7[16:1]/4,,,6<1[16:1],,,4-8[16:1],,,,,7,7,,8,,
{8}1/6h[8:2],,4h[8:1],1w5[8:1],,1,,37,
{16}8h[8:1]/6h[8:1],,,3h[8:1]/1h[8:1],,,45,,{24}3,4,5,6,5,4,3,,,{16}2,1,
{16}3h[8:1]/4,,,8/7h[8:1],,,2h[256:1],3h[256:1],
2h[256:1],,5-3[16:1],,6h[256:1],6h[256:1],,,
{16}8h[16:3],,2,2,8h[16:2],,2,,38,,4h[4:1]/7,,6,,5,,
{16}6h[8:1]/5,,,1/2h[8:1],,,5h[256:1],4h[256:1],
5h[256:1],,23,,7h[16:1],6h[16:1],5h[16:1],4h[16:1],
{16}3,,,4,43,,3,3,4q6[32:7],,2,,,,,,
{16}1,1,28,,
3,8,2-5[16:1],1,
3,,,,
8
,,7,8,
{16}6h[8:1]/1h[8:1],,,5h[8:1]/2h[8:1],,,34,,5q1[8:1],4,,4,5,,2,2,
{16}1,,3,3,4,,2-7[16:1],2,1,,,,6,,57,,
{16}2h[8:1]/5h[8:1],,,7h[8:1]/4h[8:1],,,45,,2h[8:1],,4h[8:1],,6<3[32:5],8h[16:3],,,
{16},,,,,,2,1,3h[16:2]/8h[16:4],,,,4,,6,5,
{16}6h[8:3],,8,,8,,8,,2h[16:2],,4,,3,5,4,6,
{12}78,78,78,
{16}16,,25,,4
,5,4,5,
3,5,4,5,
{16}7,5,4,5,1,4,5h[8:1],,1,6,2,7,3,8,4,1p8[8:2],
{16}5,,,,4h[16:1],,4h[16:1],,3,,,7,8,,1,6,
{16}3,4,2,5,4,6,
3,4,2,6,5,7,
3,4,3,6,
{16}5,8,1,7,2,6,3,5,4h[8:1],,,3h[8:1]/5h[8:1],,,4h[8:1]/6h[8:1],,
{16},2h[8:1]/5h[8:1],,,47,,15,15,3,4,2,5,1,6,8,7z3[16:5],
{16}8s4[8:2],,,,,,,,,,,,,,,,
