&title=MEGALOVANIA (Camellia Remix)【FULL】
&artist=かめりあ
&first=0
&des=WZZY & HDOU
&lv_7=LV20
&inote_7=(242){4},{1},,{4},,,{1}8/1s5qq5pp5[2:11],
,,,,,6z2[2:1],
{8}3,3,1,1,3,5,4,6,
{1}4bh[8:11]/6bh[8:11],
{4},,{8},3b,{4},2b/4b,
5bh[8:9]/7bh[8:9],{1},{8},6b,
{4},{1}4bh[8:11]/3bh[8:11],
{4},,{8},6b,{4},{2}4bh[16:6]/2bh[16:6],
{8}7bh[16:6]/5bh[16:6],{4},{8}1s5[4:1],
{4},,{8},8b/1b>5[6:1],{4},{2}6bV82[2:1],
5h,
4V68[2:1],{8}3h,2b,{4},3/4,
3/4V28[2:1],{2}5h,
6V42[2:1],{8}7h,8b,{4},{2}5/6V83[2:1],
5h,
4V61[2:1],{8}3h,2b,{4},{2}3/4-8[8:1],
{8}2b-6[8:1],{4},{8}7b-1-5-3[8:3],
{4},,{8},2x/8x,{4},{8}5,
6,5,6,4h,6,5,6,
5,6,5,6,3h,5,4,5,
4,5,4,5,2h,4,3,4,
3,4,3,4,1h,3,2,3,
1,1,4,4,5,5,7,7,
{16}4,3,2,1,8,7,6,5,{24}4h/8h,7,6,5,4,3,2,1,8,7,6,5,
{1}4h[8:11]/2>3v5<6V82[8:9],
{4},,{8},5,4,3,
{4}2b/6b-1[8:1],2-5[8:1],{8}7<4[8:1],{4},{8}2-6[8:1],
,8-4[8:1],,3qq4[8:3],,5,6,7,
{4}8-3[8:1],2-6[8:1],{8}4<7[8:1],{4},{8}3-6[8:1],
,7-3[8:1],,2qq3[8:3],,4,5,6,
{4}7-5[8:1],4-8[8:1],{8}1>4[8:1],{4},{8}6-2[8:1],
,8-3[8:1],,7pp6[8:3],,5,4,3,
{4}2-7[8:1],6-4[8:1],{8}3-8[8:1],{4},{8}6-3[8:1],
,1-5[8:1],,8<4[24:5],,8,3,2,
6,4,{4}5-1[8:1],{8}2-5[8:1],{4},{8}7-3[8:1],
,2-7[8:1],,6pp1[8:3],,5,4,3,
{4}2-6[8:1],4-8[8:1],1-5[8:1],{8}7,6b,
,2b/4bv7[8:1],,1s5b[4:1],{2}1xh,
{8}7,7,4,{16}6,5,{8}6,4,4,{16}6,3,
{8}5,5,2,{16}4,3,4,3,{8}5,{32}2h,3h,{16}4h,{8}7h[8:1],
5,5,7/4,7/4,3/8,3/8,2/1,2/1,
{24}8,7,{12}6h[6:1],,{24}3,4,{6}5<2[24:5],8,{12},{8}4-8[8:1],4,
7b,7,{4}6,{8}2/5,3,4,{24}2xh,E2,E1,
{8},{24}7>8-2>4[4:1],B7,C,{8},7x,,5,5,4,
7/4,7,{4}5,{8}7/4,6,4,{24}7xh,B7,C,
{8},{24}2-8<7-5[4:1],E2,E1,{8},2x,,4,4,5,
2/5,2,{4}4,{8}2/5,3,4,{24}2xh,E2,E1,
{8},{24}7x>8-2>4[4:1],B7,C,{8},7x,,{16}5,6,{8}7,{16}3,2,
{8}1/5xqq6[2:1],{4},,,{8}1s5b[16:5],
,,{4}6h[8:1],,{32}E4,E3,E2,E1,E8,E7,E6,E5,
{4}7bx/A5/A4/D5f,{8}8,8-6[8:1],1,8-2[8:1],5,8,
,4-8[8:1],,5q6[4:1],,1,{4}1,
3,{8}4,5-2[8:1],6,5<8[8:1],,1h[4:1],
,{16}E8,E7,{8}E6,3,4q5[4:1],5h[8:1],{4},7,
{8}4,5>2[8:1],6,5<8[8:1],,1-3[8:1],
,1-7[8:1],,5-8[8:1],,5,,{16}E1,E2,
{4}E3/7-5[8:1],7/3x,{8}3,6,4qq7[8:3],5h[8:3],
{2},{16}5,6,7,8,1,2,3,4,
{4}8q4[8:1],{8}5,5-2[8:1],6,5-8[8:1],,1>4[8:1],
,1p8<5[2:1],,1,,2,{4}2,
3,{8}4/3,4-7[8:1],2,4-1[8:1],,8<6[8:1],
,8-2[8:1],,4-8[8:1],,4,{4}7,
{8}5,6,4h[8:1],7,5h[8:1],6,4h[8:1],7,
2/6,3,5h[8:1],2,4h[8:1],3,5h[8:1],2,
4<7-1[4:1],4,2,2,3,4,5/1,3x/7x,
,7/3,7/3,{16}6,5,{8}4,{16}8,1,{8}2,8,
{12}7/5x,4x,3x,2xv5>3-1[12:5],{6},{4}4,8,
{8}7,6,4x,3,2/5x,5,1,2,
{12}4x/3x,5x,6x,7xv4<6-8[12:5],{6},{4}5,1-7-3[8:3],
,5,{8}2,2h[4:1],,1,
1/8,8,2,{16}2,3,{8}4,6,6,3,
{16}5,4,{8}5,{16}3,4,{8}3,{16}6,5,{8}6,{16}1,2,{8}3,
5,5,4,4,6,6,5,5,
{32}7h,6h,{16}5h[16:5],{8},1h,{32}1V74[24:5],2h,{16}3h,{2},{4}2x/5x-8[8:1],
3,4/7-4[8:1],3,
5/2-5[8:1],6,7/4-1[8:1],6,
2/5<8[8:1],3,1/4-8[8:1],7,
2/5-1[8:1],3,8/4>1[8:1],6qq3[2:1],
8,8,1,1,
{8}2/4h[8:1],2h[8:1],5h[8:1],3h[8:1],6h[8:1],4h[8:1],7h[8:1],5h[8:1],
{4}8<5[4:1],5-1[4:1],1>4[4:1],4,
1b,{8}6/5,7/4,,4/3,{4}2/5,
{12}7/5x,4x,3x,2xv5>3-1[12:5],{6},{4}4,8,
{8}7,6,4x,3,2/5x,5,1,2,
{12}4x/3x,5x,6x,7xv4<6-8[12:5],{6},{4}5,1V73[8:3],
,5,{8}2,2h[4:1],,1,
{16}2,3,{8}4,7,7,{16}5,6,{8}5,{16}7,4,{8}7,
2,2,5,5,{16}3,4,{8}3,{16}5,4,{8}5,
{16}3x,4x,3x,4x,{8}3x,5,{16}6x,5x,6x,5x,{8}6x,4,
{4}3-7[12:1],{8}4,4z8[4:1],,3,{4}3,
7x/4x-1[8:1],6,5/2-5[8:1],6,
4/7-4[8:1],3,2/5-8[8:1],3,
{8}4/7,4,4,{16}4,5,{8}3x,3x,3x,{16}3x,4,
{8}2xz6[8:5],8,8h,8h,8xh[64:1],8xh[48:1],8x-4b[8:1],8xh[24:1],
8bx,2,{4}3,{8}7/5,5,6,{24}3xh,E4,E5,
{8},{24}2x<1V75b[4:1],B2,C,{8},2x,,4,4,3,
3/5,5,{4}3,{8}6/4,5,3,{24}3xh,E4,E5,
{8},{24}2x<8-6>5[4:1],B2,C,{8},2x,,4,4,3,
2/5,2,{4}4,{8}2/5,3,4,{24}3xh,E4,E5,
{8},{24}2xV86>5b[4:1],B2,C,{8},2x,,4,4,3,
5/3,6,{24}7xh,E7,{6}E6,{24}3,{12},{24}3xh,E3,E2,{8},8,
7/1,7/1,6/2,6/2,{2}3/5-1b[8:1],
{1}2xh[2:3]/8x>7qq8[4:9],
,3qq4b[4:3],
{8}6,6,5,5,7,7,{4}4>1[8:1],
4/6,5,{12}E2,E3,E4,E8,E7,E6,
2,1,8,7pp3[12:5],6,5,{2}4h[2:1],
{12}E5,E4,E3,E1,E8,E7,3,2,1,5,6,7,
1,2,3,4h[4:1],{6},{16}A1/E2,D2,A2,D3,A3,D4,A4,D5,
{2}A5/8qq3[2:1],{4}5,4pp8[2:1],
,1,{2}7pp6[2:1],
6>3[4:1],{4}2,1pp5[2:1],
,4,{2}6>7[2:1],
1x,{12}E3,E2,E1,E5,E6,E7,
2,3,4,5,6,7,2/8,3,4,5,6,7,
{4}8x/1x-5[8:1],{8}1,7-3[8:1],,7,{4}2-5[8:1],
{8}2,1-6[8:1],,1,{2}4-8b[8:1],
5<3[2:1],4,
5qq1[2:1],7,
6>8[2:1],8,
7qq4[2:1],1,
5>2[6:1],{12}E8,E7,E6,E2,E3,E4,
7,8,1,2qq6[12:5],3,4,{2}5h[2:1],
{12}E5,E6,E7,E1,E2,E3,6,7,8,4,3,2,
8,7,6,5h[4:1],{6},{16}A1/E1,D1,A8,D8,A7,D7,A6,D6,
{2}A5/4x>6[2:1],5,
4pp8[2:1],2,
3<1[2:1],1,
{8}4/5,5/4<8v7b[8:3],,4/3,{4},{16}1x,2x,3x,4x,
{4}5b/7bp4[4:3],
{8}1x,1x,,3x,,2x,
,1x,,2x,,4b-7[8:1],{4},2b-6[8:1],
{8}8bv1-4V63[1:1],8x,,2x,,3x,
,2xh[4:1],{4},{8}1x,1bx,{4},2x/7b-1-6-2-5-3[8:11],
{8}4x,4x,,3x,,2x,
,1x,,8x,,1b-5[4:1],{4},{2}7bh[2:1],
{8}8bz4b[16:5],{4},{8}6b<3[3:1],
{4},,{8},4,4,6,
5,4q8[4:1],8,8q4[16:3],,4,,5V71[4:1],
,5/2-8-6[4:1]*v4[4:1],,2,{4},{8}3,5,
{4}3/5,{8}2/4,2-5[8:1],,6>3[8:1],,7,
,7-4[8:1],,1,,2,{4}4/2h[4:1],
{8}4,3,1x,2,5,4,8x,1,
6,5,7x,1,5,4,8x,2,
7xh[8:1],6xh[8:1],5xh[8:1],4xh[8:1],3xh[8:1],2xh[8:1],7,1b/8b,
,4,6,6,4,5,3-6[16:3],3,
{24}3b/7b,E4,B4,B5,{12}E6,8z4[6:1],{6},{4}8/1,2x,
{8}3,3,8x,8,1/3,2,4,4,
{16}2x/6x,3,4,5,6,7,8,1,{4}2b/6bpp6[2:1],C,
,3,{8}1b/8b,7,,1,
6/2,6,3,3,5,5,{16}3,4,{8}3,
{24}7x,6x,5x,3h[8:1],{12},{24}7x,6x,5x,2h[8:1],{12},{24}6x,5x,4x,1h[8:1],{12},{24}6x,5x,4x,1,{12},{8}1,
7,7,{16}8,1,{8}2/6,5,3,3,
4,4,5,5,6,6,{4}7b/2b,
1-5[8:1],8,7-3[8:1],2>5[8:1],
4,{8}6<8[8:1],6,{4}2,1>5[8:1],
4,7>2[8:1],6,4<6[8:1],
2,{8}8>3[8:1],7,{4}7,6,
{1}7h[8:7]/5h[8:7],
{8}7/5,5/7,6/4,6/4,3/5,5/3,4/2,4/2,
{4}3/1-5[8:1],1/7,{8}8-3[8:1],2,{4}8,
2>5[8:1],6/2,{8}7-4[8:1],8,{4}7/1-5[16:3],
{24}1bx,B1,C,B5,{12}A5,8x-3[8:1],{6},{4}8/2,4x,
{8}6,5,6x,4,7x/4x,8,5,5,
{16}7/2x,6,5,4,3,2,1,8,{4}7b/3bqq3[2:1],C,
,7,{8}8/1,2,,7,
6/4,4,7,7,5,6,{16}3,5,{8}3,
{24}2x,3x,4x,5h[8:1],{12},{24}2x,3x,4x,6h[8:1],{12},{24}3x,4x,5x,7h[8:1],{12},{24}3x,4x,5x,8,{12},{8}8/1,
2,{4}2h[8:1]/6h[8:1],{8}4/7,5,6,4,
8x,{16}5-1[8:1],6,{8}4,5x,2x-5[8:1]*-6[8:1],2x,{4}2b,
8-5[8:1],3,2-7[8:1],6,
5-8[8:1],{8}1,1,{4}2-5[8:1],4,
{8}7,4,7,{16}5,6,{8}5,4,6,{16}7,5,
{2}7h[2:1],1h[1:2],
{1}3-5-7-4-8[16:19],
{4},,{8},1/8x,{4},3/5,
6h[4:5]/5-3-1-4-8[1:1],{1},{8},6/1x,
{4},{1}5h[8:11]/7-4-2-5-1[8:9],
{4},,{8},2/8,{4},{2}7/8,
{8}5/6,{4},{8}2/4,
,7,5,3h[4:1],,8b,{4},{2}7h[4:1]/1h[4:1],
8h[4:1]/B3,
7h[4:1]/2h[4:1],6h[4:1]/E5,
5h[4:1]/3h[4:1],7h[4:1]/B2,
6h[4:1]/4h[4:1],7h[4:1]/C,
{8}3,3,5,5,4,4,6,6,
{16}3,2,1,8,7,6,5,4,{24}3,2,1,8,7,6,{32}5,4,3,2,1,8,7,6,
{4}5x<4[8:5],7x-2[4:1],{2},{8}5,
5,6,6,{24}8,7,6,5,4,3,{4}2-6[8:1],
2x/8x-4[8:1],4-8[8:1]/8-2[8:1],,7/3V51[8:3],
6-8[8:1],6,{32}2x-7[8:1]/7x-2[8:1],6x/3x,{16}5x/4x,{4},{8},{4}6/3-8[8:1],
5-2[8:1],{2}2-5[8:1]*-7[8:1],
{8}3,3,5,5,4,4,{24}8,7,{6}6,
{4}5x-1[8:1],5/7-4[8:1],{2}2-6[8:1]*-5[8:1],
{8}4,7,7,2,2,1,{16}1/2,3,4,5,
{4}7xV51[3:1],7/2-4[12:1],2,3-7[8:1]/7-3[8:1],
,8z4[4:1]/1s5[4:1],{2},{8}4/5,
6,6,{16}3,4,{8}5h[4:1],7,7h[4:1],{16}5,4,
{8}3h[4:1],6,6h[4:1],{16}3,2,{8}1h[8:1],5,{32}2x,3x,4x,5x,6x,7x,8x,1x,
{8}2x,4,2,2,4,3,5h[16:3],{16}4,3,
{4}6x/2h[4:1],{8}4,2,2,6,{4}6h[4:1]/4h[8:1],
{8}3,3,7,{16}7,6,{8}5h[4:1],3,3,{16}3,4,
{8}5h[4:1],6,6h[4:1],{16}5,4,{8}3h[8:1],5,{16}3,2,1,8,
{32}7x,6x,5x,4x,{8}3x,5,5,4,4,6<4[16:7],6,
{2}3h[2:1],{16}5,6,7,8,1,2,3,4,
{4}5/1-5[8:1],1/7-3[8:1],2,1q5[8:1]/5q1[8:1],
,7/3,{16}2/1,3,4,5,{4}7xV51[4:1],
7/8,2>5[8:1]*-4[12:1],2,8,
1/2-6[8:1],2/5-8[8:1],{2}8-5[8:1]*-3[8:1],
{4}2b<7b[4:1],2/6<1-5[12:5],4,6,
6,3/7-4[12:1],{24}7/3<6[12:1],2,1,8,{12},{4}8x-2[12:1]*>3[8:1],
,5x,6/4,2-7[8:1]/7-2[8:1],
,3s7[3:1]/6z2[3:1],{2},{8}1,
1,8,{16}8,7,{8}6/2,2,7,{16}7,6,
{8}5/1,1,2,{16}2,3,{8}4/6,6,{16}1,2,3,4,
{32}8/5,7,6,5,{8}4,2,2,5,5,1,{16}1,2,
{32}3,8,7,6,5,4h[32:7],{16},,,{32}1,8,7,6,{4}5h[4:1],{8}6,4,
5,5,4,{16}4,3,{8}2/5,5,2,{16}2,3,
{8}4/6,6,4,{16}7,6,5,4,{8}3,{24}1,8,7,6,5,4,
{32}3,8x,7x,6x,5x,4x,3x,2x,{8}1x,4,4,5,5,2,
6h,4h,{4}7h,{12}2,4,3,8,5,6,
{1}1V73>2-8-6>5-1b[4:29]*V73>2-8-6>5-1b[4:29],
,,,,,,,4/4?-1[1:2],
,5-8b[4:13],
6$,
1/1?-4[4:5],
,{2}4h[8:15],
3h[8:11],
5h[8:7],6h[8:3],
{1}5$/4/3h[1:4]/6h[1:4],
,2/7$,
4/5$,
1/8-5b[4:11],
4/2/6$,
7$/1/1?-4[4:7],
,(121){4}6$/7h[4:1],
6pp1b[2:1],{2}6$/5h[2:1],
{4}3/2h[4:1],3/3?qq8[2:1],{2}3/4h[2:1],
{4}6$/7$,5$,7$/5pp8b[2:1],8$,
4/3,1/1?pp4[2:1],{2}1/4,
{4}7$/6h[4:1],8$,{2}5h[4:1]/6-1b[8:1],
{4}3/2,1,{2}4h[4:1]/2/2?-5[8:1],
{4}1/5h[4:1],2/6h[4:1],3/7h[4:1],4/8h[4:1],
7/1h[4:1],6/2h[4:1],{2}4/4?-8[8:1]/5-1[8:1],
(242){8}3/7h[2:1],3,{4}4,{8}2h[8:7]/8h[2:1],{4},{8}3,
6h[8:5],1,,3,,4/7$b,3,4,
2/6$b/5h[2:1],2,{4}3/6$b,{8}3h[8:7]/7h[2:1],{4},{8}2,
6h[8:5],4,,2,,1/8$b,2,3,
2/6$b/5h[2:1],2,{4}4,{8}3h[8:7]/6h[2:1],{4},{8}4,
7h[2:1],2,,4,8h[2:1],2/6$b,3,2,
4/5$b,4,{4}3,{8}8$b/7$b/2h[8:7],{4},{8}3/6$b/5$b,
,1/5$,6$,3/6$,5$,4/7$b/5$b,3,2,
{2}8$/1/1?>4[4:5],7$/6$/B3/B2,
6$,{8}6$/5$/B2/B3,5$b,{4},6$b/5b<8b[4:5],
5$b/6$b,{2}3/2/B7/B6,
5$,{8}2/3/B7/B6,1b,{4},{2}5$/6$/1h[4:9]/1?-4[1:2],
B7/B6,
,B7/B6,
5h[4:9]/5?-8b[1:2],B2/B3,
,B2/B3,
4h[4:9]/4?-1[1:2],B7/B6,
,B7/B6,
8h[2:3]/8?-5b[4:7],B2/B3,
,B2/B3,
{8}8$/B1/B4/E3f/E4/E2/D2/A2/A3/D4,8$,6$,6$,7$,7$,5$,5$,
1,1,3,3,2,2,4,4,
5$,5$,6$,6$,7$,7$,8$,8$,
4,4,3,3,2,2,1,1,
{16}8$/4,7$/3,6$/2,5$/1,8$/4,7$/3,6$/2,5$/1,8$/4,7$/3,6$/2,5$/1,8$/4,7$/3,6$/2,5$/1,
{24}8$x/4x,7$x/3x,6$x/2x,5$x/1x,8$x/4x,7$x/3x,6$x/2x,5$x/1x,8$x/4x,7$x/3x,6$x/2x,5$x/1x,8$x/4x,7$x/3x,6$x/2x,5$x/1x,8$x/4x,7$x/3x,6$x/2x,5$x/1x,8$x/4x,7$x/3x,6$x/2x,5$x/1x,
{4}3x/4xh[4:1],2,{8}2/3,{4},{8}1h[4:1],
,3h[4:1],,2h[4:1],{4},1/4,
5$/8$/2h[16:59]/3h[16:59],7$,6$,7$,
{8}5$,{4},{8}5$,{4},8$,
,6$,7$,6$,
{8}5$,{4},{8}5$,{4},{24}B8,C,{6}B5,
{8}2/6$,3,{4}7$/1h[4:1],{8}2/6$,2,1/4/5$,4h[4:1],
3/5h[4:1],1h[4:1],2,3h[4:1]/5h[4:1],,2,1/6$,4,
2/4/5$,2,{4}6$/3h[4:1],{8}4/7$,3,2/6$,4h[4:1],
3/5h[4:1],1h[4:1],2,3h[4:1]/5h[4:1],,4,2/6$,2,
4/1/6$,1,{4}8$/3h[4:1],{8}4/7$,3,2/6$,4h[4:1],
3/5h[4:1],1h[4:1],2,3h[4:1]/5h[4:1],,1,2/6$,2,
4/1/5$,4,{4}6$/2h[4:1],{8}1/7$,2,3/8$,4h[4:1],
3/7h[4:1],2h[4:1],3,3h[4:1]/6h[4:1],,4,3/8$,2,
1/3/5$/7$,5$/1h[8:3],{4}4/5$,{8}2/6$,3,4/5$,1h[4:1],
2/6h[4:1],4h[4:1],3,2h[4:1]/6h[4:1],,1,2/5$,3,
4/1/7$,4,{4}6$/2h[4:1],{8}3/6$,2,1/5$,2h[4:1],
{4}4/5h[4:1],{8}2,1/5h[4:1],{16}4,2,4,2,{8}3/6$,1,
4/2/6$,4,{16}1/7$,2,4,3,1/6$,2,{8},4/5$,4,
2/5h[4:1],2,{16}4,3,1/5h[4:1],2,4,3,{8},2/6$,2,
4/5$,4,{16}1/6$,2,4,3,1/7$,2,{8},3/8$,3,
1/7h[4:1],1,{16}4,3,1/6h[4:1],2,4,3,{8},2/5$,2,
1/4/5$/6$,4/1/5$/6$,{16}1x/5$/6$,2x,4x,3x,1x/8$,2,4x,3,{8}1/7$,1,
4/6h[4:1],4,{16}1x/5$,2,4x/6h[4:1],3,1x,2,4x/5$,3,{8}1/7$,1,
3/7$,3,{16}1x/6$,2,4x,3,1x/7$,2,4x,3,{8}1/5$,1,
3/6h[4:1],3,{16}4x/5$,3,1x/6h[4:1],2,4x,3,1x/7$,2,{4}5$/4h[16:45],
{16}B2,E2,{8},{4}8$b/7$b,{16}B3,E4,{8},{4}5$b/6$b,
{16}E3,D3,{8},{4}7$b/6$b,{16}B2,E2,{8},{4}7$b/8$b,
{16}B3,E4,{8},{4}6$b/5$b,{16}B2,E2,{8},8$b/7$b,6$,
,3/2/8$/6$,,1/4/7$/5$,,2/3/6$/5$,2/3/6$/5$,2/3,
{32}A1/8v5[8:1],B1,E2,B2,E3,B3,E4,B4,{4}1bx/8$b/A4/D5,{8}2/7$,3,4/2/6$,1,
3/2/5h[4:1],4,3/1/6$,2h[4:1]/5h[4:1],,3/6$,4/7$,1,
4/2/7$,4/2,1/3/6$,4,2/3/7$,1,2/4/6$,3h[4:1],
5h[4:1],2,1/6$,4/6h[4:1],{16}4,2,3/7$,2,{8}4/7h[4:1],1,
{2}3/4h[4:3]/8bx-5[4:1],{4}6$/E2/B2/B1,7$/2h[4:3],
,3/5<1[4:1],{2}8$/E3/B3/B2,
{4}3/5$/4h[4:3],5$,{8}6$/B3/B4/E4,6$,2h[4:3],5$,
6$,6$,A4/E4/D4/5v6-8[8:3],5$,4/5$,2,3,4,
1/7$,1/7$,3/5$,3/5$,2/8$,2/8$,4/6$,4/6$,
{16}2/8$x,3/7$x,2/6$x,3/5$x,2/8$x,3/7$x,2/6$x,3/5$x,1x/7$,6$/2x,7$/3x,6$/4x,7$/1x,6$/2x,7$/3x,6$/4x,
{1}1xs5[4:3]/8xz4[4:3],
{4},B7/E7/B6/C/B2/E3/B3/B4/E5/B5,{2}5/4h[6:1],
{8}6/3,6,1/7,{16}1,2,{8}3/7,{16}7/3,6,5,4,{8}3/1,
1,7/2,7,{16}7/2,6,5,4,{8}3,{32}1,8,7,6,5,4,3,2,
{8}1/6,6,{16}6,7,{8}8/1,{16}1,2,3,4,{8}5/7,7,
8/1-5[16:1],2,7-3[16:1],8,2-6[16:1],1,,7,
1h[8:1],7,{4}8/1h[8:1],{8}8/2h[8:1],7,7/2h[8:1],6,
1h[8:1],7,1h[8:1],5,3h[8:1],7,7/3h[8:1],8,
6h[8:1],3,{4}2/6h[8:1],{8}3/5h[8:1],3,4/5,2-6[16:1]/7-3[16:1],
,2/7,,2x,{24}7xh[4:1]/A1,D1,A8,D8,D7,A6,D6,A5,D5,A4,{12},{8}7,
7,1/8,{16}1,2,{8}3/6,{16}6,5,{8}4,1/4,
{24}1,2,3,4,5,6,{8}7/8x,8,{16}2,3,{8}4,{24}8,1,2,3,4,5,
{8}6/2,2,7/1,{16}1,2,{8}3/6,{16}6,5,{8}1/4,1,
{24}1/5,8,7,6,5,4,3/7,8,1,2,3,4,{2}5b/1b,
{16}4,5,4,5,4,5,4,5,3,6,3,6,3,6,3,6,
4x,5x,3x,6x,4x,5x,3x,6,4x,5x,3x,6x,4x,5x,3x,6x,
{24}4,5,4,5,4,5,3,6,3,6,3,6,{32}2,7,2x,7x,2,7,2x,7x,1,8,1,8x,1x,8,1,8xz4b[32:13],
{1}1x-4[8:3],
{8}4/5-1[8:1],4,{4}3-8[8:1],{8}8-4[8:1],7,6,{24}5xh,E6,E7,
{8},{24}3xV58[24:7],E3,E2,{8},3x,,1,2,3,
4/7,7,{4}5h[4:1],{8}6-2[8:1],6,5>2[8:1],5,
8-4[8:1],8,1-3[8:1],1,{2}5v3[8:1]*<8[8:1],
{8}1b/2b-6b[8:1],2b/8b,{4}2b/7b,{8}7b/5b,6b/4b,5b/3b,4b/2b-6b[8:1],
,2b/8b<5b[8:1],,8b,1b-6bb[8:1],2b>5b[8:1],1b,2b,
8b<5b[8:1],8b,4b,{16}2b,2b,{8}3b,1b-5b[8:1],,1b/5bw1b[8:1],
,5bx,{16},,{32},8bx/2bx,3b/7b,4b/6b,{4}5b,{8}3-7b[12:1],4b/2b,
{1}3bx,
