&title=[覚]名探偵連続殺人事件
&artist=てにをは
&first=0
&des=Sakurago?
&lv_7=覚
&inote_5=(140.00)
{8},,,,,,,,
{8},,,,,,,,
{8},,,,,,,,
{8}4h[8:2]/5h[8:2],,,,1h[8:2]/8h[8:2],,,,
{8}4/5,,1/8,,3/6,,,,
{8}8?-4b[35#16:1]`3?-6[35#16:1],,,,,,,,
{8},,,,1b,,,,
{8}3?-7b[35#16:1]`4?q5[35#16:1],,,,,,,,
{8},,,,2b,,,,
{8}8?-4b[35#16:1]`3?z7[35#16:1],,,,,,,,
{8},,,,3b,,,,
{8}5?-2b[35#16:1]`8?-2[35#16:1],,,,,,,,
{8},,,,1b,,,,
{8}7?-3b[35#16:1]`2?>5[35#16:1],,,,,,,,
{8},,,,1b,,,,
{8}4?q1b[35#16:1]`5?p8[35#16:1],,,,,,,,
{8},,,,2b,,,,
{8}3?-7b[35#16:1]`6?V84[35#16:1],,,,,,,,
{8},,,,2b,,,,
{8}1?-5b[35#16:1]`4?v6[35#16:1],,,,,,,,
{8},,,,1b,,,,
{8}2?s6b[35#16:1]`7?z3[35#16:1],,,,,,,,
{8},,,,5b,,,,
{8}7?>3b[35#16:1]`3?v5[35#16:1],,,,,,,,
{8},,,,1b,,,,
{8}3h[8:12]/7h[8:12],,,,,,,,
{8},,,,,,,,
{8}1/8,,1/8,,4/5,,4/5,,
{8}2/7,,2/7,,3h[8:2]/6h[8:2],,,,
{8}7h[8:6]/8h[8:6],,,,,,,,
{8}2h[8:6]/1h[8:6],,,,,,,,
{8}5?>4-1b[35#16:1]`1?<8-5[35#16:1],,,,,,,,
{8},,,,2b,,,,
{8},,,,,,,,
{8}8?-4b[35#16:1]`3?-7[35#16:1],,,,,,,,
{8},,,,1bh[128:1],,,,
{8}2?-6b[35#16:1]`5?p3[35#16:1],,,,,,,,
{8},,,,2bh[128:1],,,,
{8}2?-6b[35#16:1]`6?q1[35#16:1],,,,,,,,
{8},,,,3bh[128:1],,,,
{8}2?-4-6-8b[35#16:1]`3?z7[35#16:1],,,,,,,,
{8},,,,2bh[128:1],,,,
{8}7?>8-5b[35#16:1]`4?-6v8[35#16:1],,,,,,,,
{8},,,,3bh[128:1],,,,
{8}3?<1b[35#16:1]`6?p8-5[35#16:1],,,,,,,,
{8},,,,3bh[128:1],,,,
{8}1?v7b[35#16:1]`3?qq6[35#16:1],,,,,,,,
{8},,,,2bh[128:1],,,,
{8}5?s1b[35#16:1]`4?z8[35#16:1],,,,,,,,
{8},,,,3bh[128:1],,,,
{8}1/8,,1/8,,4/5,,4/5,,
{8}6/7,,6/7,,2h[8:2]/3h[8:2],,,,
{8}1?-6-2-4b[35#16:1]`8?p1[35#16:1],,,,,,,,
{8},,,,4bh[128:1],,,,
{8}5?p8b[35#16:1]`3?q8[35#16:1],,,,,,,,
{8},,,,2bh[128:1],,,,
{8}2?-8-4-6b[35#16:1]`7?-3[35#16:1],,,,,,,,
{8},,,,1bh[128:1],,,,
{8}4?v2-8b[35#16:1]`8?v6-4[35#16:1],,,,,,,,
{8},,,,3bh[128:1],,,,
{8}3?qq8b[35#16:1]`7?qq4[35#16:1],,,,,,,,
{8},,,,1bh[128:1],,,,
{8}7?-5-8-4b[35#16:1]`3?V51[35#16:1],,,,,,,,
{8},,,,3bh[128:1],,,,
{8}1?-7-3-5b[35#16:1]`8?-2-6-4[35#16:1],,,,,,,,
{8},,,,3bh[128:1],,,,
{8}4?q1-3b[35#16:1]`8?q5-7[35#16:1],,,,,,,,
{8},,,,2bh[128:1],,,,
{8}8?<4-7b[35#16:1]`4?>8-3[35#16:1],,,,,,,,
{8},,,,2bh[128:1],,,,
{8}1?v3-1-7b[35#16:1]`5?v7b-5-3[35#16:1],,,,,,,,
{8},,,,3bh[128:1],,,,
{8}1/8,,,,,,,,
{8}5/6,,3/4,,5/6,,3/4,,
{8}6/7,,2/3,,7/8,,1/2,,
{8}1?>2v3<5b[35#16:1]`4?v6-8-2[35#16:1],,,,,,,,
{8},,,,3bh[128:1],,,,
{8}1/8,,,,,,,,
{8},,,,,,,,
E
&inote_7=(140.00)
{8},,,,,,,,
{8},,,,,,,,
{8},,,,,,,,
{8}4h[8:2]/5h[8:2],,,,1h[8:2]/8h[8:2],,,,
{8}4/5,,1/8,,3/6,,,,
{8}8?-4b[35#16:1]`3?-6[35#16:1],,,,,,,,
{8},,,,1b,,,,
{8}3?-7b[35#16:1]`4?q5[35#16:1],,,,,,,,
{8},,,,2b,,,,
{8}8?-4b[35#16:1]`3?z7[35#16:1],,,,,,,,
{8},,,,3b,,,,
{8}5?-2b[35#16:1]`8?-2[35#16:1],,,,,,,,
{8},,,,1b,,,,
{8}7?-3b[35#16:1]`2?>5[35#16:1],,,,,,,,
{8},,,,1b,,,,
{8}4?q1b[35#16:1]`5?p8[35#16:1],,,,,,,,
{8},,,,2b,,,,
{8}3?-7b[35#16:1]`6?V84[35#16:1],,,,,,,,
{8},,,,2b,,,,
{8}1?-5b[35#16:1]`4?v6[35#16:1],,,,,,,,
{8},,,,1b,,,,
{8}2?s6b[35#16:1]`7?z3[35#16:1],,,,,,,,
{8},,,,5b,,,,
{8}7?>3b[35#16:1]`3?v5[35#16:1],,,,,,,,
{8},,,,1b,,,,
{8}3h[8:12]/7h[8:12],,,,,,,,
{8},,,,,,,,
{8}1/8,,1/8,,4/5,,4/5,,
{8}2/7,,2/7,,3h[8:2]/6h[8:2],,,,
{8}7h[8:6]/8h[8:6],,,,,,,,
{8}2h[8:6]/1h[8:6],,,,,,,,
{8}5?>4-1b[35#16:1]`1?<8-5[35#16:1],,,,,,,,
{8},,,,2b,,,,
{8},,,,,,,,
{8}8?-4b[35#16:1]`3?-7[35#16:1],,,,,,,,
{8},,,,1b,,,,
{8}2?-6b[35#16:1]`5?p3[35#16:1],,,,,,,,
{8},,,,2b,,,,
{8}2?-6b[35#16:1]`6?q1[35#16:1],,,,,,,,
{8},,,,3b,,,,
{8}2?-4-6-8b[35#16:1]`3?z7[35#16:1],,,,,,,,
{8},,,,2b,,,,
{8}7?>8-5b[35#16:1]`4?-6v8[35#16:1],,,,,,,,
{8},,,,3b,,,,
{8}3?<1b[35#16:1]`6?p8-5[35#16:1],,,,,,,,
{8},,,,3b,,,,
{8}1?v7b[35#16:1]`3?qq6[35#16:1],,,,,,,,
{8},,,,2b,,,,
{8}5?s1b[35#16:1]`4?z8[35#16:1],,,,,,,,
{8},,,,3b,,,,
{8}1/8,,1/8,,4/5,,4/5,,
{8}6/7,,6/7,,2h[8:2]/3h[8:2],,,,
{8}1?-6-2-4b[35#16:1]`8?p1[35#16:1],,,,,,,,
{8},,,,4b,,,,
{8}5?p8b[35#16:1]`3?q8[35#16:1],,,,,,,,
{8},,,,2b,,,,
{8}2?-8-4-6b[35#16:1]`7?-3[35#16:1],,,,,,,,
{8},,,,1b,,,,
{8}4?v2-8b[35#16:1]`8?v6-4[35#16:1],,,,,,,,
{8},,,,3b,,,,
{8}3?qq8b[35#16:1]`7?qq4[35#16:1],,,,,,,,
{8},,,,1b,,,,
{8}7?-5-8-4b[35#16:1]`3?V51[35#16:1],,,,,,,,
{8},,,,3b,,,,
{8}1?-7-3-5b[35#16:1]`8?-2-6-4[35#16:1],,,,,,,,
{8},,,,3b,,,,
{8}5?q2-4b[35#16:1]`
1?q6-8[35#16:1],,,,,,,,
{8},,,,2b,,,,
{8}8?<4-7b[35#16:1]`4?>8-3[35#16:1],,,,,,,,
{8},,,,2b,,,,
{8}1?v3-1-7b[35#16:1]`5?v7b-5-3[35#16:1],,,,,,,,
{8},,,,3b,,,,
{8}1/8,,,,,,,,
{8}5/6,,3/4,,5/6,,3/4,,
{8}6/7,,2/3,,7/8,,1/2,,
{8}1?>2v3<5b[35#16:1]`4?v6-8-2[35#16:1],,,,,,,,
{8},,,,3b,,,,
{8}1/8,,,,,,,,
{8},,,,,,,,
E
