&title=Pris-Magic!
&artist=しぐれうい
&first=0
&des=うすしお
&lv_5=13+
&inote_5=(126){4},,,,
B1/E2,,E3/A3,,B4/E5,,E6/A6,,
B7/E8,,E1/A1
,,
{48}E2,B2,B3,,,,,,,,,,E8,B7,B6,,,,,,,,,,B2,B3,E4,,,,,,,,,,B7,B6,E6,,,,,,,,,,
{4}1-4[4:1],,8-5[4:1],,1-4[4:1],,8-5[4:1],,
Ch[1:2],,,,6<3[4:3],
,,,
,,,,A1,A2,A3,{48}A4,D5,A5,D6,A6,D7,A7,D8,A8,D1,,,
{8}6<2[4:1]*q2[4:1],45,,,,,34,,2<6[4:1]*p6[4:1],43,,,,,54,,
6<2[4:1]*q2[4:1],45,,,,,34,,2-6[8:1],1,8-4[8:1],7,3-7[8:1],2,5,,
3p8[4:1]/4p8[4:1],25,,,,,17,,2q5[4:1]/1q5[4:1],38,,,,,46,,
{24}3>8[8:1],,,5,,5,3,,,6,,,7<4[8:1],,,1,,1,7,,,2,,,
3<6[8:1],,,1,,1,3,,,8,,,{4}7>2[4:1],,
4h[1:1],E3,,B6,5h[1:1],E4,,B7,
6h[2:1],B2,7h[2:1],B3,{8}8>4[2:1],,,7,8,7,6,6,
{4}5pp8[2:1],4,,2,1q6[4:1],8,7q4[4:1],5,
3>8[4:1],8<5[4:1],5>2[4:1],,
{12}6,17,,{8}2h[8:1]/8h[8:1],,34,34,{12},4h[24:1]/5h[24:1],,
{8}5x/6x,7x/8x,1x<6[4:1]/2xp5[4:1],34,12,,,,
4x/3x,2x/1x,8x>3[4:1]/7xq4[4:1],65,87,,,,
5<8[4:1],,4,,3>8[4:1],,4,,5pp5[4:1],,5qq5[4:1],,,,,,
6x/7x,8x/1x,2x<7[4:1]/3xp6[4:1],45,23,,,,
3x/2x,1x/8x,7x>2[4:1]/6xq3[4:1],54,76,,,,
{24}4-8[8:1],,,3,,3,4,,,2,,,1-5[8:1],,,8,,8,1,,,7,,,
6-2[8:1],,,8,,8,6,,,1,,,3-7[8:1],,,5,,5,3,,,6,,,
{8}1x-5[8:1]/7x,2,7x-3[8:1]/1x,8,4x-8[8:1]/7x,5,4x/6x,7,
8bx,,,,1s5[8:1]/8z4[8:1],,,,
{24}1-5[8:1],,,7,,,1-3[8:1],,,6,,6,1-5[8:1],,,7,,,1-3[8:1],,,6,,,
1-5[8:1],,,4,,,1<4[4:1]b,,,6,,6,{4},,
7-5[8:1],8-4[8:1],1-3[8:1],3,
2-4[8:1],1-5[8:1],8-6[8:1],6hx[12:1],
{24}8-4[8:1],,,2,,,8-6[8:1],,,3,,3,8-4[8:1],,,2,,,8-6[8:1],,,3,,,
2v5[8:1]/8v5[8:1],,,1,,,28,,,,,3h[24:7]b/7h[24:7]b,{8},,,,
6-2[8:1]/2-5[8:1],4,26,{24},,1h[24:4]/3h[24:7],{8},,8,7,
6<1[8:1],5,2>5[8:1],3,8<5[8:1],1,4>5[24:17],3,
4,,,,,,,B5f/Ch[8:5],
{4},,,2-7[8:1],6-3[8:1]/2,2-7[8:1]/6,6-3[8:1]/2,26,
2-4[8:1]/6-4[8:1],2^1-7^6[4:1]/6^7-1^2[4:1],,,
3v1[8:1]/7v5[8:1],37,{24}2hx[8:1]/6hx[8:1],,,,,2x/6x,{8},3hx[8:11]/5hx[8:3],
,,,4,4-8[8:1],,,,1hx[4:3],,,2,{4}2-6[8:1],,
5<8[4:1],8>3[4:1],3<6[4:1],6<1[4:1],1>5[4:1]/1q5[4:1],,,,
{32}B8,B7,,,,,,,{4},B2/B3,,
{2}6,1,4,7,2<1q7q4<7[4:5],,,,
8/B8,3/B3,6/B6,1/B1,4<5-1>3-7>1[4:5],,,{4},2b/7b,
{24}8-4[8:1],,,2,,,8-6[8:1],,,3,,3,8-4[8:1],,,2,,,8-6[8:1],,,3,,,
8-4[8:1],,,5,,,8>5[4:1]b,,,3,,3,{8},,,,
7-5[8:1],7,8-4[8:1],8,1-3[8:1],1,3>6[4:1],,
6<3[4:1],,3>6[4:1],,6,,8hx[12:1],,
{24}1-5[8:1],,,7,,,1-3[8:1],,,6,,6,1-5[8:1],,,7,,,1-3[8:1],,,6,,,
1-5[8:1],,,4,,,1<4[4:1]b,,6,,,6,{8},,,,
3-7[8:1]/7-4[8:1],5,73,{24},,8h[24:4]/6h[24:7],{8},,1,2,
3>8[8:1],4,7<4[8:1],6,1>4[8:1],8,5<4[4:3],6,
{4}5/Ch[1:1],,,,
1b,2b,3b,{24}4,5,6,7,8,1,
{8}6<2[4:1]*q2[4:1],45,,,,,34,,2<6[4:1]*p6[4:1],43,,,,,54,,
6<2[4:1]*q2[4:1],45,,,,,34,,2-6[8:1],1,8-4[8:1],7,3-7[8:1],2,5,,
3>6[4:1]/4p5[4:1],56,34,,,,37,,
2>7[4:1]/1q8[4:1],87,21,,,,26,,
{24}3>8[8:1],,,4,,4,3,,,5,,,6>3[8:1],,,7,,7,6,,,8,,,
1<6[8:1],,,2,,2,1,,,3,,,{8}4w8[4:1],,4,,
,,,{36}1,8,7-3[16:45],,,
