&title=Trailblazer
&artist=xi
&first=0.054
&des=Master Lim
&lv_5=14+
&lv_7=Legacy 14+
&inote_5=(120){4},,,,
(120){4}1>8[2:3],,,,,,,,
(120){16},E2,B1,B2,,E8,B8,B7,,E8/E2,,E7/E3,,C/E6,,C/E4,
(120){16},B6,B5,B4,B3,,B8,B1,,E8/E2,,E7/E3,
(120){32}1x,2x,3x,4x,5x,6x,7x,
(120){32}8bx<1b[2:3],,,,,,,,,,,,,,,,,,,,,,,,,B6,B5,,,,,,,B3,,,,,,,,,,,,,,,,,,,,,,,,,,,,,,,,
(120){16}8,8,1,1,7,7,
(120){32}3,4,3,,
(120){16}5,5,4,4,6,6,
(120){32}2,1,2,,
(120){4}1pp6[3:1]*bqq4b[3:1],,,
(120){32}4,3,2,1,5,6,7,8,
(120){32}1b/2b,,,,,,1b/2b,,,,,,8b/3b,,,,,,8b/3b,,,,,,5,6,5,6,,,5/6,,
(120){32}8b/7b,,,,,,8b/7b,,,,,,6b/1b,,,,,,6b/1b,,,,,,3,4,3,4,,,4/3,,
(120){32}6b/5b,,,,,,6b/5b,,,,,,7b/4b,,,,,,7b/4b,,,,,,2,1,2,1,,,1/2,,
(120){32}4b/3b,,,,,,4b/3b,,,,,,5b/2b,,,,,,5b/2b,,,,,,8,7,8,7,,,8,,
(120){16}1b,8,2,8,3,8,4,8,5,8,6>1[10:1],8,,,,,
(120){16}8b,1,7,1,6,1,5,1,4,1,3<8[10:1],1,,,,,
(120){16}1b,8,2,7,3,6,4,5,
(120){32}4,5,4,5,3,6,3,6,2,7,2,7,1,8,1,8,
(120){32}1b,2,3,4,5,6,7,8,1,2,3,4,5,,6,,7,,,8,,,1,,,2,,3,,4,,,5bpp1b[2:1]*qq1[2:1],,,,,,,,,,,,,,,,,,,,,,,,,,,,,,,,
(120){16}7bh[8:1]/2bh[8:1],,,,6h[133:25],5,5,5,4h[133:25],5<8[8:1],5,5,,,,1,
(120){16}3h[133:25],4,4,4,5h[133:25],3>1[8:1],3,3,,,,,
(120){32}8,7,6,5,4,3,2,1,
(120){16}7bh[8:1]/8bh[8:1],,,,3h[133:25],4,4,4,5h[133:25],4>1[8:1],4,4,,,,8,
(120){16}6h[133:25],5,5,5,B6,E5,B3,E8/B7/B8,,B1/E2/B2,,B5/E5/B4,,E7,C,E3,
(120){16}7bh[8:1]/2bh[8:1],,,,,1,2,3,,8,7,6,,3,4,5,,6,5,4,,6,7,8,
(120){32}B1,B2,B3,B4,B5,B6,B7,B8,E1,E2,E3,E4,E5,E6,E7,E8,
(120){16}1bxh[8:1]/8bxh[8:1],,,,,1,2,3,4,8,7,6,5,3,4,5,6,6,5,4,3,6,7,8,
(120){32}3b,4,5,6b,5,4,3b,4,5,6,7,8,1,2,3,4,
(120){16}5b<8b[14:15],,,,,1,1,1,,2,2,2,,3,3,3,,4,4,4,
,5,5,5
(120){32}B1,B2,B3,,,,,B8,B7,B6,,,5,,,4,,,
(120){16}4b>1b[14:15],,,,,8,8,8,,7,7,7,,6,6,6,,5,5,5,,4,4,4
(120){32}B8,B7,B6,,,,,B1,B2,B3,,,4,,,5,,,
(120){16}5b<8b[14:15],,,,,1,1,1,,2,2,2,,3,3,3,,4,4,4,,5,5,5
(120){32}1,2,3,,,,,8,7,6,,,5,,,4,,,6b/3b,
(120){32},,,,,,,1,2,3,4,8,7,6,5,2,3,4,5,7,6,5,4,1,2,3,4,8,7,6,5,
(120){32}1b,2,3,4,5,6,7,8,1,2,1,2,1,2,1,2,3,4,5,6,8,7,6,5,2,3,4,5,8,7,6,5,
(120){32}1b,2,3,4,5,6,7,8,1,2,3,4,5,6,7,8,1,2,1,2,1,2,1,2,2,2,2,2b,2b,2b,2b,2b,2b>6b[2:3]*<6[2:3],,,,,,,,,,,,,,,,,,,,,,,,,,,,,,,,,,,,,,,,,,,,,,,,,,,,,,,,,,,,,,,,
(120){16},E8,B8,B7,,E2,B1,B2,,E2/E8,,E3/E7,,C/E6,,C/E4,,
(120){16}B8,B1,B7,B2,B6,B3,B5,B4,E7,E3,E8,
(120){32}1x,2x,3x,4x,5x,6x,7x,
(120){32}8x<1[2:3],,,,,,,,,B2,,,,,,,,B4,,,,,,,,B6,B5,,,,,,,B3,,,,,,,,B5,,,,,,,,E7,,,,,,,,B8,,,,B8,,,,
(120){32}1x>8[2:3],,,,,,,,B7,,,,,,,,B5,,,,,,,,B3,B4,,,,,,,B5,,,,,,,,,,,,B6,,,,,,,,,,,,B8,,,,,,,,
(120){16}2b>4b[10:1],1,2,1,,,7b<5b[10:1],8,7,8,,,2b,1,2,1,3b>1b[10:1],4,3,4,,,6b<8b[10:1],5,6,5,,,3b,4,3,4,
(120){16}2b-4b[10:1],1,2,1,,,7b-5b[10:1],8,7,8,,,2b,1,2,1,5bv8b[10:1],6,5,6,,,4bv1b[10:1],3,4,3,,,
(120){32}8/1,,,7/2,,,6/3,,5>1[2:3]/4<8[2:3],,,,,,,,,,,,,,,,,,,,,,,,,,,,,,,,,,,,,,,,,,,,,,,,,,,,,,,,,,,,,,,,
(120){32}1b/2b,,1b/2b,,,,8b/7b,,8b/7b,,,,6b/5b,,6b/5b,,,,3b/4b,,3b/4b,,,,1b/8b,,8/1,7/2,6/3,5h[320:10]/4h[320:10],,,5bh[8:5]/4bh[13:3],,,,,,,,,
(120){32}6,7,8,1,2,3,4h[205:100],,,,,,3,2,1,8,7,6,5h[880:100],,,,,
(120){32}3,6,3,6,2,7,2,7,1,8,1,8,1,8,1,8,
(120){32}E8/B7/B8,,B1/E2/B2,,C,,B6/E6/B5,,B4/E4/B3,,C,,E7/B7/B6,C,B2/E3/B3,,
(120){32}8b/1b,,,,,,8b/1b,,,,,,7b/2b,,,,
(120){32},3,4,5,6,7,1,2,3,4,5,6,7,8,1,2,3,,,8,7,6,5,4,3,2,1,8,7,,,1,2,3,4,3,4,5,6,5,6,7,8,1,2,3,4,5,
(120){32}8b/1b,,,,,,8b/1b,,,,,,7b/2b,,,,,,
(120){32}2,3,4,5,3,4,5,6,4,5,6,7,5,6,7,8,1,2,3,4,5,6,7,8,1,2,3,4,5,6,7,1,2,3,4,8,7,6,5,1,2,3,4,5,6,7,
(120){32}1b,2,3,4,5b,6,7,8,1b,2,3,8b,7,6,3b,4,5,8b,7,6,5,1b,2,3,4,8b,7,6,3b,4,5,
(120){32}1b,2,3,4,5b,6,7,8,1b,2,3,8b,7,6,3b,4,5,
(120){32}7,,5,,6,,4,,7,,3,,,2,1,2,
(120){32}1b,2,3,4,5b,6,7,8,1b,2,3,8b,7,6,3b,4,5,8b,7,6,5,1b,2,3,4,8b,7,6,3b,4,5,
(120){32}1b,2,3,4,5b,6,7,8,1b,2,3,8b,7,6,3b,4,5,
(120){32}7,,5,,6,,4,,7,,3,,1,2,1<5[12:5],2>5[266:100],,,,,,,,,,,,,,,,,,,,,,,,,
(120){32}6b/4b,,,7b/3b,,,8b/2b,,
(120){16}1h[133:25],8,8,8,2h[133:25],7,7,7,3h[133:25],6,6,6,
(120){32}5,4,5,4,,5h[320:10]/4h[320:10],,,
(120){32}1,2,3,4,5,6,7,,,,,,8,7,6,5,4,3,2,,,,,,1,2,3,4,5,6,7,8,1q5[2:1]*p5[2:1],,,,,,,,,,,,,,,,,,,,,,,,,,,,4,5,4,5,
(120){16}1b,8,2,8,3,8,4,8,5,8,6>1[10:1],8,,,,,
(120){16}8b,1,7,1,6,1,5,1,4,1,3<8[10:1],1,,,,,
(120){16}1b,8,2,7,3,6,4,5,
(120){32}4,5,4,5,3,6,3,6,2b,7b,2b,7b,1b,8b,1b,8b,1b,2,3,4,5,6,7,8,1,2,3,4,5,6,7,8,1b,8,7,6,5,4,3,2,1,8,7,6,5,4,3,2,1b,2,3,4,5,6,7,8,1,2,3,4,5,6,7,8,
(120){64}1b,8,7,6,5,4,3,2,1,8,7,6,5,4,3,2,1,8bh,7bh,6bh,5bh,4bh,3bh,2bh,1bh,8bh,7bh,6bh,5bh,4bh,3bh,2bh,1b>8b[6:4],,,,,,,,,,,,,,,,,,,,,,,,,,,,,,,,,,,,,,,,,,,,,,,,,,,,,,,,,,,,,,,,
(120){16},2,1,3,7,8,6,4b/5b,,3b/8b,,2b/7b,,8b/4b,7b/3b,6b/2b,E
&inote_7=(120){4},,,,
(120){4}1>8[2:3],,,,,,,,
(120){16},B2,B1,E2,,B7,B8,E8,,E8/E2,,E7/E3,,E7/E6,,E3/E4,
(120){16},B2,B1,E2,E3,,B8,E8,,E8/E2,,E7/E3,
(120){32}1x,2x,3x,4x,5x,6x,7x,
(120){32}8bx<1b[2:3],,,,,,,,,,,,,,,,,,,,,,,,,B6,B5,,,,,,,B3,,,,,,,,,,,,,,,,,,,,,,,,,,,,,,,,
(120){16}8,8,1,1,7,7,
(120){32}3,4,3,,
(120){16}5,5,4,4,6,6,
(120){32}3,4,3,,
(120){4}1pp6[3:1]*bqq4b[3:1],,,
(120){32}4,3,2,1,5,6,7,8,
(120){32}1/2,,,,,,1/2,,,,,,8/3,,,,,,8/3,,,,,,5,6,5,6,,,5/6,,
(120){32}8/7,,,,,,8/7,,,,,,6/1,,,,,,6/1,,,,,,3,4,3,4,,,4/3,,
(120){32}6/5,,,,,,6/5,,,,,,7/4,,,,,,7/4,,,,,,2,1,2,1,,,1/2,,
(120){32}4/3,,,,,,4/3,,,,,,5/2,,,,,,5/2,,,,,,8,7,8,7,,,8,,
(120){16}1,8,2,8,3,8,4,8,5,8,6>1[10:1],8,,,,,
(120){16}8,1,7,1,6,1,5,1,4,1,3<8[10:1],1,,,,,
(120){16}1,8,2,7,3,6,4,5,
(120){32}4,5,4,5,3,6,3,6,2,7,2,7,1,8,1,8,
(120){32}1,2,3,4,5,6,7,8,1,2,3,4,5,,6,,7,,,8,,,1,,,2,,3,,4,,,5pp1[2:1]*qq1[2:1],,,,,,,,,,,,,,,,,,,,,,,,,,,,,,,,
(120){16}7h[8:1]/2h[8:1],,,,6h[133:25],5,5,5,4h[133:25],5<8[8:1],5,5,,,,1,
(120){16}3h[133:25],4,4,4,5h[133:25],3>1[8:1],3,3,,,,,
(120){32}8,7,6,5,4,3,2,1,
(120){16}7h[8:1]/8h[8:1],,,,3h[133:25],4,4,4,5h[133:25],6<8[8:1],6,6,,,,1,
(120){16}3h[133:25],4,4,4,B6,E5,B3,E8/B7/B8,,B1/E2/B2,,B5/E5/B4,,E7,C,E3,
(120){16}7h[8:1]/2h[8:1],,,,,1,2,3,,8,7,6,,3,4,5,,6,5,4,,6,7,8,
(120){32}B1,B2,B3,B4,B5,B6,B7,B8,E1,E2,E3,E4,E5,E6,E7,E8,
(120){16}1h[8:1]/8h[8:1],,,,,1,2,3,4,8,7,6,5,3,4,5,6,6,5,4,3,6,7,8,
(120){32}3,4,5,6,5,4,3,4,5,6,7,8,1,2,3,4,
(120){16}5<8[14:15],,,,,1,1,1,,2,2,2,,3,3,3,,4,4,4,,5,5,5
(120){32},
(120){32}1,2,3,,,,8,7,6,,,5,,4,,,,
(120){16}4>1[14:15],,,,,8,8,8,,7,7,7,,6,6,6,,5,5,5,,4,4,4
(120){32},
(120){32}1,2,3,,,,8,7,6,,,5,,4,,,,
(120){16}5<8[14:15],,,,,1,1,1,,2,2,2,,3,3,3,,4,4,4,,5,5,5
(120){32},
(120){32}1,2,3,,,,8,7,6,,,5,,4,,,,6/3,
(120){32},,,,,,,1,2,3,8,7,6,2,3,4,7,6,5,1,2,3,8,7,6,2,3,4,7,6,5,
(120){32}1,2,3,4,5,6,7,8,1,2,1,2,1,2,1,2,3,4,5,6,8,7,6,5,2,3,4,5,8,7,6,5,
(120){32}1,2,3,4,5,6,7,8,1,2,3,4,5,6,7,8,1,2,1,2,1,2,1,2,2,2,2,2,2,2,2,2,2>6[2:3]*<6[2:3],,,,,,,,,,,,,,,,,,,,,,,,,,,,,,,,,,,,,,,,,,,,,,,,,,,,,,,,,,,,,,,,
(120){16},B2,B1,E2,,B7,B8,E8,,E8/E2,,E7/E3,,E7/E6,,E3/E4,,
(120){16}B2,B1,E2,E3,B8,E8,E7,E2,E7,E3,E4,
(120){32}1x,2x,3x,4x,5x,6x,7x,
(120){32}8x<1[2:3],,,,,,,,,,,,,,,,,,,,,,,,,B6,B5,,,,,,,B3,,,,,,,,,,,,,,,,,,,,,,,,,,,,,,,,
(120){32}1x>8[2:3],,,,,,,,,,,,,,,,,,,,,,,,,B3,B4,,,,,,B5,,,,,,,,,,,,B6,,,,,,,,,,,,B8,,,,,,,,
(120){16}2b>4b[10:1],1,2,1,,,7b<5b[10:1],8,7,8,,,2b,1,2,1,3b>1b[10:1],4,3,4,,,6b<8b[10:1],5,6,5,,,3b,4,3,4,
(120){16}2b-4b[10:1],1,2,1,,,7b-5b[10:1],8,7,8,,,2b,1,2,1,4bv1b[10:1],3,4,3,,,5bv8b[10:1],6,5,6,,,
(120){32}8/1,,,7/2,,,6/3,,5>1[2:3]/4<8[2:3],,,,,,,,,,,,,,,,,,,,,,,,,,,,,,,,,,,,,,,,,,,,,,,,,,,,,,,,,,,,,,,,
(120){32}1b/2b,,1b/2b,,,,8b/7b,,8b/7b,,,,6b/5b,,6b/5b,,,,3b/4b,,3b/4b,,,,1b/8b,,8/1,7/2,6/3,5h[320:10]/4h[320:10],,,5h[8:5]/4h[13:3],,,,,,,,,
(120){32}6,7,8,1,2,3,4h[205:100],,,,,,3,2,1,8,7,6,5h[880:100],,,,,
(120){32}3,6,3,6,2,7,2,7,1,8,1,8,1,8,1,8,
(120){32}E8/B7/B8,,B1/E2/B2,,C,,B6/E6/B5,,B4/E4/B3,,C,,E7/B7/B6,C,B2/E3/B3,,
(120){32}8/1,,,,,,8/1,,,,,,7/2,,,,
(120){32},3,4,5,6,7,1,2,3,4,5,6,7,8,1,2,3,,,8,7,6,5,4,3,2,1,8,7,,,1,2,3,4,3,4,5,6,5,6,7,8,1,2,3,4,5,
(120){32}8/1,,,,,,8/1,,,,,,7/2,,,,,,
(120){32}2,3,4,5,3,4,5,6,4,5,6,7,5,6,7,8,1,2,3,4,5,6,7,8,1,2,3,4,5,6,7,1,2,3,4,8,7,6,5,1,2,3,4,5,6,7,
(120){32}1b,2,3,4,5b,6,7,8,1b,2,3,8b,7,6,3b,4,5,8b,7,6,5,1b,2,3,4,8b,7,6,3b,4,5,
(120){32}1b,2,3,4,5b,6,7,8,1b,2,3,8b,7,6,3b,4,5,
(120){32}7,,5,,6,,4,,7,,3,,,2,1,2,
(120){32}1b,2,3,4,5b,6,7,8,1b,2,3,8b,7,6,3b,4,5,8b,7,6,5,1b,2,3,4,8b,7,6,3b,4,5,
(120){32}1b,2,3,4,5b,6,7,8,1b,2,3,8b,7,6,3b,4,5,
(120){32}7,,5,,6,,4,,7,,3,,1,2,1<5[12:5],2>5[266:100],,,,,,,,,,,,,,,,,,,,,,,,,
(120){32}6/4,,,7/3,,,8/2,,
(120){16}1h[133:25],8,8,8,2h[133:25],7,7,7,3h[133:25],6,6,6,
(120){32}5,4,5,4,,5h[320:10]/4h[320:10],,,
(120){32}1,2,3,4,5,6,7,,,,,,8,7,6,5,4,3,2,,,,,,1,2,3,4,5,6,7,8,1q5[2:1]*p5[2:1],,,,,,,,,,,,,,,,,,,,,,,,,,,,4,5,4,5,
(120){16}1,8,2,8,3,8,4,8,5,8,6>1[10:1],8,,,,,
(120){16}8,1,7,1,6,1,5,1,4,1,3<8[10:1],1,,,,,
(120){16}1,8,2,7,3,6,4,5,
(120){32}4,5,4,5,3,6,3,6,2,7,2,7,1,8,1,8,1,2,3,4,5,6,7,8,1,2,3,4,5,6,7,8,1,8,7,6,5,4,3,2,1,8,7,6,5,4,3,2,1,2,3,4,5,6,7,8,1,2,3,4,5,6,7,8,
(120){64}1,8,7,6,5,4,3,2,1,8,7,6,5,4,3,2,1,8h,7h,6h,5h,4h,3h,2h,1h,8h,7h,6h,5h,4h,3h,2h,1>8[6:4],,,,,,,,,,,,,,,,,,,,,,,,,,,,,,,,,,,,,,,,,,,,,,,,,,,,,,,,,,,,,,,,
(120){16},2,1,3,7,8,6,4b/5b,,3b/8b,,2b/7b,,8b/4b,7b/3b,6b/2b,E
