&title=XTREME 【旧】
&artist=USAO
&first=0
&des=星見カエデ & Index
&lv_5=14+
&inote_5=(205)
{1},
{1}Cf/B1/B2/B3/B4/B5/B6/B7/B8,,
{4}E1,,B7,,B3,,E5,5hx[4:13],
{2}A3,A2,A1,A8,A7,A6,
{4}1b-5[8:1],1b<6[8:1]*>4[8:1],1bw5[8:1],,
{4}7h[4:1],5h[4:1],4h[4:1],B4,2h[4:1],4h[4:1],5h[4:1],B5,
{2}8x-4[8:1]/3x-1[8:1],1x-5[8:1]/6x-8[8:1],
{8}8xV64[4:1]/4xV28[4:1],8x/4x,8v6[4:1]/4v2[4:1],,
{2},
{8}3x/7x-5[8:1],2,1,,1x/4x-8[8:1],2,3,,
{8}6x/2x-4[8:1],7,8,,8x/5x-1[8:1],7,6,,
{16}8x,1x,8x,1x,8x,1x,8x,1x,
{32}8b,7,6,5,4,3,2,1,8bx,7,6,5,4,3,2,1,
{1}8bxp6[4:2]/4bxp2[4:2],
{8}8-5[8:1],8,4-1[8:1],,8-5[8:1],,4-1[8:1],,8-5[8:1],,4-1[8:1],,8x-5[8:1],8x,4x-1[8:1],4x,
{8}7-2[8:1],7,3<6[8:1],,
{16}7>2[8:1],,,5x,,,5x,,
{8}1x/2b,8,7,6b/5x,4,3,7b/2b,,
{8}1b-3[8:1]/5b,1b/5b,1-7[8:1],5x,1-3[8:1],5x,1-7[8:1],5x,1-4[8:1],5x,1-6[8:1],5x,1-4[8:1],5x,1x,
{16}6x,5x,
{8}8x<5[8:1],2,3,4x>1[8:1],6,7,
{16}8x,8x,8x,,
{4}1b-5b[8:1]/7b-3b[8:1],1b/7b,2b-6b[8:1]/8b-4b[8:1],2b/8b,
{8}8x<5[8:1],5,8,,1x>4[8:1],4,1,,7<4[8:1],8,1,2q5[4:1],5,6,7,,
{8}8x-6[8:1]/5x-1[8:1],61,,,1x-3[8:1]/4x-8[8:1],38,,,
{4}8bx<5b[8:1]*>3b[8:1],8bw4b[8:1],8b,,
{8}1b-5[8:1]/3x,3,13,3,8-5[8:1]/3,3,83,3,7-5[8:1]/2,2,72,2,7-4[8:1]/2,2,72,2,
{8}1b-4[8:1]/6x,6,16,6,8-4[8:1]/6,6,86,6,
{8}67,,23,,81,81,,,
{8}64,7,8,,43,,48,,56,,51,,62,,73,
{16}2x,1x,
{8}2x,8,71,62,53,81,72,63,
{1}4b-6-2-8b[2:1]/5b-3-7-1b[2:1],
{8}4b/7b-5[8:1],4b/7b,7bV13[8:1],4,7b-5[8:1],5x,7bV13[8:1],4,7b-5[8:1],5x,7bV13[8:1],4,7b-5[8:1],5x,7b,
{16}4,3,
{8}2b-5[8:1],,8b/2b,8b,8bw4[8:1],,8b,,8b/1b,
{16}8b/1b,7b/2b,6b/3b,,,,5V31[8:1]*-7[8:1],,,,5b,,,,
{8}8b-6[8:1]/2b-6[8:1],8b/2b,
{4}8b-4[8:1]/2b-4[8:1],8b-6[8:1]/2b-6[8:1],8b-4[8:1]/2b-4[8:1],8b-6[8:1]/2b-6[8:1],
{4}8b-4[8:1]/2b-4[8:1],8b-6[8:1]/2b-6[8:1],8b/2b,
{8}4-2[8:1],5-1[8:1],4x-8[8:1],5x-7[8:1],4x-2[8:1],5x-1[8:1],4x,5x,
{32}2b,3x,4x,5x,6x,7x,8x,1x,2b,3x,4x,5x,6x,7x,8x,1x,2b,3x,4x,5x,6x,7x,8x,1x,2b,3x,4x,5x,6x,7x,8x,1x,
{4}2b>6[8:1]/6x,2b/Cf,7<3[8:1]/3,7b/Cf,1>6[8:1]/7,1b/Cf,8<3[8:1]/2,8b/Cf,
1>7[8:1]/8,1b/Cf,8<2[8:1]/1,8b/Cf,
{4}1b>4[8:1]/8,8b<5[8:1]/1,1b>4[8:1]/8,1b/8b,
{4}4>7[8:1]/6,4b/Cf,5<2[8:1]/3,5b/Cf,4>7[8:1]/7,4b/Cf,5<2[8:1]/2,5b/Cf,
{8}4b/5b,,1b/8b,,2b/6b,7b/3b,
{16}1,5,3,7,
{1}2xpp3b[4:2]/6xpp7b[4:2],Ch[2:3],,
{8}E7,,E3,,E1,,E5,,E7/B7/B6,B2/B3/E3,,B4/B5/E5,,C,,,
{4}4xh[4:7],A5,,A6,,A7,,A8,
{4}1h[8:1]/2h[8:1],2h[8:1]/3h[8:1],3h[8:1]/4h[8:1],4h[8:1]/5h[8:1],
{8}6h[8:1],4h[8:1],7h[8:1],3h[8:1],
{16}8,2,8,,1b,,,,
{8}7x/8x,,5h[2:1]/B2/B3,,,4,E2,,6x/5x,,8h[2:1]/B3/B2,,,1,E6,,
{8}2x/1x,,4h[2:1]/B7/B6,,,5,E8,,3x/4x,,1h[2:1]/B6/B7,,,8,E4,,
{8}7x/8x,,3h[2:1]/B7/B6,,,6,E8,,2x/1x,,6h[2:1]/B2/B3,,,3,E2,,
{4}5v7[8:1]/1v3[8:1],,8v6[8:1]/4v2[8:1],,5-7[8:1]*-8[8:1],5-3[8:1]*-2[8:1],5w1[8:1],5b,
{8}7x,7x,7hx[4:7],,8,,6,,1,,5,,2,,4,,
{8}2x,2x,2hx[4:3],,1,,3,,8b-5[8:1]*-6[8:1],,8b-3[8:1]*-2[8:1],,8bw4[8:1]*-4[8:1],,,,
{16}6x/5x,,6x/5x,,47,,47,,83,,83,,1,2,1,2,8/3x,,8x/1x,,8,7,8,7,1/6x,,7,8,,3,4,,51,,6,5,,2,1,2,1,4,5,3,6,2,7,1,
{1}8bq3[2:1]*p5[2:1],
{4}4h[8:3]/8h[8:3],,
{32}7b/3b,2x/6x,5x/1x,4x/8x,,,,,{4}2b/6b,
{16}74,,6,5,6,,48,,25,,3,4,3,,15,,74,,6,5,7<4[8:1],,48,,7/3>8[8:1],,2,,53,,6,,
{16}2,,2,1,2,,84,,61,,7,8,7,,51,,38,,2,1,3-8[8:1],,84,,3/7-4[8:1],,6,,17,,2,,
{16}6,,6,5,6,,48,,25,,3,4,3,,15,,74,,6,5,7v4[8:1],,48,,7/3v8[8:1],,2,,53,,6,,
{16}7,,7,8,6-1b[8:1],,15,,2-5b[8:1]/6b,,3,,2b,,6,,
{32}8,1,2,3,4,5,6,7,
{4}8/1b,
{24}2x,7x,2x,7x,2x,7x,
{8}1x,8x,
{16}2x-4[8:1],1,3x,8,2,,1,,6x-8[8:1],5,7x,4,6,,5,,
{16}3x-1[8:1],4,2x,5,3,,4,,7x-5[8:1],8,6x,1,7,,8,,
{16}2x-5[8:1],1,4x,5,2,,8,,7x-4[8:1],8,5x,4,7,,3,,
{16}3,4,1,8,3,,5h[8:1],,
{32}1,8,7,6,5,4,3,2,
{4}1/8b,
{8}6bx/5bx,6b/5b,8bh[8:1]/1bh[8:1],,2bxh[8:1]/4bx,{16},4x,{8}3/5h[8:1],3,4bxh[8:1]/6bx,6b,5b/7bh[8:1],5,4bxh[8:1]/6bx,6,35,
{16}4,6,
{16}3bx,7,3b,7,3b,7,3b,7,2bx,8,2b,8,2b,8,2b,8,
{16}1,1,1,1,1,1,1,1,1,2,3,4,5,6,7,8,
{4}1b>8[4:6],,,,,,,,
{8}25,3,48,6,15,2,7-4[8:1]/1,6,7/3-8[8:1],2,3,6,
{32}5v8[8:1]*v2[8:1],6,7,8,1,2,3,4,
{4}5b,
{8}1-5[8:1],6-8[8:1],1,6,3-1[8:1],8-4[8:1],3,8,
{8}2-5[8:1],7-4[8:1],2,7,1-5[8:1],8-4[8:1],1,8,
{16}1,2,3,4,2,3,4,5,3,4,5,6,4,5,6,7,
{32}8b/1b,2,3,4,5,6,7,8,1b,2,3,4,5,6,7,8,1b,2,3,4,5,6,7,8,
{4}1b/5b,
{4}8h[8:1]/2b-6[8:1],2/4bh[8:1],1h[8:1]/8b-5[8:1],3bh[8:1]/8,
{4}1h[8:1]/7b-3[8:1],7/5bh[8:1],8h[8:1]/1b-4[8:1],6bh[8:1]/1,
{8}74,6,51,3,84,7,2-5[8:1]/8,3,2/6-1[8:1],7,6,3,
{32}4v1[8:1]*v7[8:1],3,2,1,8,7,6,5,
{4}4b,
{8}8bv5b[8:1],4,3,2,1bv4b[8:1],5,6,7,8b<5b[8:1]/5b,4,3,2,1b>4b[8:1]/4b,5,6,7,
{8}7bv6b[8:1]/5bv8b[8:1],7b/5b,,,2bv3b[8:1]/4bv1b[8:1],2b/4b,,,
{4}8b-4b[8:1]*-6b[8:1],8b/Cf,1b-5b[8:1]*-3b[8:1],1b/Cf,
{4}7x-4[8:1]/8x,3-8[8:1]/7,7-2[8:1]/3,3-6[8:1]/7,8-5[8:1]/3,4-1[8:1]/8,7-3[8:1]/4,2-6[8:1]/7,
{4}8V64[4:1]/2,4V28[4:1],8-4[4:1],4qq1[4:3]*pp7[4:3],,,,,
{8}3x/4x,2,56,7,35,1,36,8,4x/5x,7,36,1,45,8,56,1,
{16}7b,6h[1:0],5/1bx,2h[1:0],3/8bx,7h[1:0],6/2bx,3h[1:0],4/7bx,6h[1:0],5/1bx,2h[1:0],3/8bx,7h[1:0],6/2bx,3,
{16}4bxh[4:1]/8bxh[4:1],,,,,37,26,15,{8}48,2b/6b,4w8[8:1],,4b,,,,
E
