&title=FUN!!
&artist=DECO*27
&first=-0.115
&lv_5=14
&des_5=ARcana!!
&inote_5=
(186){4},{8},,,B6,E5,B3,
,2-4[8:1],,7-5[8:1],8,{4},{8}2-5[8:1],
,7-4[8:1],,2-4[8:1],1,{4},{8}7-4[8:1],
,2-5[8:1],,7-5[8:1],8,{4},{8}3<6[2:1],
{4},{8}E6,B5,B4,E4,,3/6,
,5/4,,4/5,,2/5,,7/4,
,1/8,,4/7,,2/5,,3/6,
,2bh[1:1]/7bh[1:1],,,,,,,,,,,,,,Cf/B2/B3/E3/B1/B8/B7/B6/E7/B5/B4,
,2v4[8:1],,7v5[8:1],,1v3[8:1],,8v5[8:1],
,2>8[4:1],,2,{4},{8}6,1/8,
,7v5[8:1],,2v4[8:1],,8v6[8:1],,1v4[8:1],
,7<1[4:1],,7/3,{4},{8}3,8/1,
,2-5[8:1],2,7-4[8:1],7,1-5[8:1],1,8-4[8:1],
8,2-5[8:1],2,8-4[8:1],8,1-5[8:1],1,7-4[8:1],
7,2-6[8:1],2,1-5[8:1],1,8-4[8:1],8,7-3[8:1],
7,{4},{8}2b,{4},{8}3/6,1b/8b,
,2-5[8:1],,2/1,,7-4[8:1],,8/7,
,1v3[8:1],8v6[8:1],1,{4}8,{8}4,5,
6,7-4[8:1],,7/8,,2-5[8:1],,1/2,
,8-4[8:1],1-5[8:1],8,1,{4},{8}C,
,1-4[8:1],,1/8,,8-5[8:1],,8/1,
,1,8,1,8,1,5,1>1[1:1],
{1}5,
{8},,,E6,E4,Ch[4:1],,,,3-8[8:1],
,3/4,,6-1[8:1],,5/6,
,2v4[8:1],1v6[8:1],2,{4}1,{8}1x-5[16:1],8,
1,6-1[8:1],,6/5,,3-1[8:1],,4/3,
7-5[8:1],8x-4[8:1],7-3[8:1],8-2[8:1],7,8,,,,3-8[8:1],
6,3,7v5[8:1],2,7,3>8[8:1],
4,3,5p8[8:1],2,{4}5,{8}E6,E5,
E4,6-1[8:1],3,6,2v4[8:1],7,2,6<1[8:1],
5,6,4q1[8:1],7,4,8-4[8:1],,8,
,1>5[4:1],,5<8[4:1],,8pp4[8:3],{4},{16}4v7[16:5],
{2},{16}6b,{2},{8}8<4[4:1],
,4>1[4:1],,1qq5[8:3],{4},{16}5v2[16:5],
{2},{16}3b,{2},{8}4/5,
,5/3,,6/4,,5/2,
,7/4,,1/4,,8/5,,1/8,
,2-6[8:1],2,8-4[8:1],8,1-5[8:1],1,7,
7,{16}1,8,1,8,1,8,1,8,{32}1,2,3,4,5,6,7,8,1,2,3,4,
5,6,7,8,{8}1b,{4},{8}1/8,C,{4},{8}4,
5,{16}A4,D4,A3,E3,B2,B1,{8}7,8,7,
{4}7-5[8:1]/8-4[8:1],8-2[8:1]/7-3[8:1],8/7,{8}1,8,
{4}1<6[8:1]*>4[8:1],1w5[8:1],1b,8-4[8:1],
8,{8}3,5,4,3,2,1/8,
{4}2/1<5[4:1],{8}5b,4b,3b,2b,5,1,
8,8-6[8:1]/1-5[8:1],,1-3[8:1]/8-4[8:1],,1/8,,1-7[8:1]*-6[8:1],
,1-3[8:1]*-4[8:1],,1w5[8:1],,1b,,8-4[8:1],
,8,,3,5,4,6,2,
{4}8,{16}4,5,4,5,4,5,4,5,4,6,{8}3,
{4}2-4[8:1]/1-5[8:1],1-7[8:1]/2-6[8:1],1/2,{8}8,1,
{4}8>3[8:1]*<5[8:1],8w4[8:1],8b,1-5[8:1],
{8}1,{4},{8}4,5,6,7,8/1,
{4}7/8>4[4:1],{8}4b,5b,6b,7b,4,8,
1,1-3[8:1]/8-4[8:1],,8-6[8:1]/1-5[8:1],,8/1,,8-2[8:1]*-3[8:1],
,8-6[8:1]*-5[8:1],,8w4[8:1],,8b,,1-5[8:1],
,1,,6,4,5,3,7,
{4}1s5[4:1],{2},{4}4-1[8:1]/5-8[8:1],
{8}5/4,{4},{8}Cf/B2/B3/B1/B8/B7/B6/E3/E7/B5/B4,,1-4[8:1],1,8-5[8:1],
8,2-5[8:1],2,7-4[8:1],{2}7,
{8}4,3,2,1,8,7,6,5-7[8:1],
4-2[8:1],5v8[8:1],{4}4,,4-1[8:1]/5-8[8:1],
{8}5/4,{4},{8}Cf/B2/B3/B1/B8/B7/B6/E3/E7/B5/B4,,1-4[8:1],1,8-5[8:1],
8,2-5[8:1],2,7-4[8:1],7,1-4[8:1],1,7-3[8:1],
7,2-6[8:1],2,8-4[8:1],8,4qq4[8:3]*pp4[8:3],,,,,,,,5,
3,4,
{2}2h[2:1],4h[16:9],
{16},5h[16:9],{2},{8}7,,,,3,
,6,,3/4,,6/5,
,4-2[8:1],5-7[8:1],4-1[8:1],{2}5,
{8},1<6[8:1],2,3,4,5>2[8:1],6,7,
8,1<1[2:1],,,,,,,,8>3[8:1],
7,6,5,4<7[8:1],3,2,
1,8>8[2:1],,,,,,,,4h[8:7]/6h[8:7],
,,,,,,,4h[4:1]/6h[4:1],
{4},{2}4h[8:3]/6h[8:3],
{8},5h[8:7]/3h[8:7],,,,,,,,5h[4:1]/3h[4:1],
{4},{2}5h[8:3]/3h[8:3],
{8},4h[8:7]/5h[8:7],,,,,,,,4h[4:1]/5h[4:1],
{4},{2}4h[8:3]/5h[8:3],
{8}4h[4:5],{32}B5,E6,{1},{4},{16},{8}3,
4,5,6,
{4}C,{8}1,5,2,6,3,7,
8,4,8-4[8:1],4-8[8:1],{2},{8}8,
4,7,3,6,2,1,5,
1-5[8:1],5-1[8:1],{2},{8}2,4,
3,6,4,5,1,3,2,8,
6,7,3,5,{4}4h[8:3],5,
{1}5<8p3[4:5]*p1<8p3[4:5],
{4},,,{16}4,5,4,5,
4,5,4,5,{8}4,2-5[8:1],,4-7[8:1],,6-1[8:1],
,8-3[4:1],,3<6[4:1],,6<1[4:1],,1-4[8:1]*-6[8:1],
,,,8-5[8:1]*-3[8:1],,,,2w6[8:1],
,,,7w3[8:1],,,,1,
8,{16}1,8,1,8,1,8,1,8,1,8,1,8,1,8,
1,8,2,7,1,8,2,7,1,8,2,7,1,8,2,7,
1,8,2,7,1,2,3/8,7,6/2,3,4/7,6,5/1,2,3/7,6,
5/2,3,4/8,7,6/1,2,3/8,7,6/2,3,4/7,6,5/1,2,3/8-4[16:1],7,
6/2,3,{8}8b/4,{4},{8}C,E6/B5/B4/E4,{4},{8}E8/B8/B1/E2,
C,{16}E4,B4,B5,E6,{8}1-5[8:1],7-3[8:1],,,,C,
{4},{8}C,E8/B8/B1/E2,{4},{8}B3,
B4,B5,B6,{2}C,
{4}2,2,2,{8}3,5,
{4}7,7,7,4h[8:1],
5,{8}4,5,3,6,2,7,
1h[8:3],{2},{8}8,1,8,
,1/7,,2/8,,1/6,,3/8,
,1/5,,8/4,,2/7,,3/6,
,4h[4:1],,5,4,5,3,6,
{1}4h[8:5],
{4}7-5[8:1]/8-4[8:1],8-2[8:1]/7-3[8:1],8/7,{8}1,8,
{4}1<6[8:1]*>4[8:1],1w5[8:1],1b,8-4[8:1],
8,{8}3,5,4,3,2,1/8,
{4}2/1<5[4:1],{8}5b,4b,3b,2b,5,1,
8,8-6[8:1]/1-5[8:1],,1-3[8:1]/8-4[8:1],,1/8,,1-7[8:1]*-6[8:1],
,1-3[8:1]*-4[8:1],,1w5[8:1],,1b,,8-4[8:1],
,8,,3,5,4,6,2,
{4}7h[2:1],{2},{4}5-8[8:1]/4-1[8:1],
{8}4/5,{4},{8}Cf/B7/B6/B8/B1/B2/B3/E7/E3/B4/B5,,8-5[8:1],8,1-4[8:1],
1,7-4[8:1],7,2-5[8:1],{2}2,
{8}5,6,7,8,1,2,3,4-2[8:1],
5-7[8:1],4v1[8:1],{4}5,,5-8[8:1]/4-1[8:1],
{8}4/5,{4},{8}Cf/B7/B6/B8/B1/B2/B3/E7/E3/B4/B5,,8-5[8:1],8,1-4[8:1],
1,7-4[8:1],7,2-5[8:1],2,8-5[8:1],8,2-6[8:1],
2,7-3[8:1],7,1-5[8:1],1,5pp5[8:7]*qq5[8:7],,,,,,,,,,,,E8f,
,E4f,,Cf,,1,
6,2,7,3-8[8:1],8-3[8:1],3<6[8:1],,,,C,
,B5/B4,,B8/E1/B1,,8,
3,7,2,6-1[8:1],1-6[8:1],6>3[8:1],,,,1,
7,1,7,2,6,2,
6,3,5,4-8[8:1],4,4w8[8:1],{2},{8}7/1>4[16:1],
8,{4}1b/7,{8}2/8<5[16:1],1,
{4}8b/2,{8}7/1>4[16:1],8,{2}1b/7h[8:3],
{8},E4f,,E8f,,Cf,,4,
7,3,6,2-5[8:1],5-2[8:1],2-7[8:1],,,,B2,
B3,B7,B6,C,,5,
2,6,3,7-4[8:1],4-7[8:1],7-2[8:1],,,,1b,
,2-6[8:1],1,2,8-4[8:1],1,
8,1-5[8:1],8,1,7-3[8:1],8,{4}7,
{8},{16}2,1,{8}2,{16}7,8,{8}7,{16}3,4,{8}3,{16}6,5,
{8}6,{16}2,4,3,8,6,7,1,3,2,7,5,6,{8}1b,
,{24}E6,B5,B4,{4},,,{24}B2,
B3,{12}E4,{3},{24}B1,B8,{12}E8,{24},,,,,{8}6,
,3,,6/5,,3/4,,5-7[8:1],
5-3[8:1],5-8[8:1],5-2[8:1],5-1[8:1],5,5b,,C,
E
