&title=Duel Alternatives
&artist=『ウルスラグナ ~征戦のデュエリスト~』オープニング
&first=0.002
&des_1=Tane
&des_2=Tane
&des_3=Tane
&des_4=Tane
&lv_4=10
&des_5=Tane
&lv_5=13+
&des_6=Tane
&des_7=Tane
&des=Tane
&inote_4=(175){1},,
{8}4-2<6[4:10]/5-7>3[4:10],,,,
,,,,
,,,,
,,,,
,,,,
,,,,
4h[8:3],,,5,
,,3h[8:3],,
,4,,,
2h[8:2],,,,
3h[8:3],,,5h[8:3],
,,3h[8:3],,
,4,,24,
,,B1/E2,,
5h[8:3],,,4,
,,6h[8:3],,
,5,,,
7h[8:2],,,,
6h[8:3],,,4h[8:3],
,,6h[8:3],,
,5,,,
1,,1-5[8:1],,
{8}7h[4:1],,,,
8,,8-4[8:1],,
2h[4:3],,,,
,,,,
,,7,,
56,,5^2[4:1]/6,,
,,,,
1,,,,
{32}E3f,,,,{8},,{32}E4f,,,,
{8},,{32}E7,,,,{8},
,{32}E2,,,,{8},,
6,5,,,
3>6[4:4],,,,
,,,,
,,,,
,,,,
{8}1x,,,,
,,,,
{8}1-4[8:13],,,,
,,,,
,,,,
,,,,
7-4[8:11],,,,
,,,,
,,,,
,,,,
2^4v5^7b[8:13],,,,,,
,,,,
,,,,
,,
1h[8:3],,,,
,,E5h[8:8],,
,,,,
B3h[4:1],,,,
{16}17,,,,
B4,,,,
17,,,,
34,,,,
82,,,,
B5,,,,
82,,,,
65,,,,
78,,,,
B4,,,,
18,,,,
34,,,,
21,,,,
B5,,,,
81,,,,
6h[4:1]/5,,,,
{32}E8,B8,B1,E2,{8}A2h[8:2],,{32},,,,
{8},,{32}E3,B3,B4,E5,{8}A5h[8:2],
,{32},,,,{8},,
6h[8:2],,,,
3h[4:1],,4,,6h[4:1],,5,,
{16}E1h[16:1],,,,
,,,,
3,,,,
6,,,,
{8}
1,,12,,
1,,12,,
8,,87,,
8,,87,,
4,,43,,
4,,43,,
5,,56,,
5,,56,,
{8}6h[4:1],,,{24}6h[4:1],,,
{8},,2h[4:1],,
,{24}2h[4:1],,,{8},,
1,,8,,
6-3[8:1],,,,
1-4[8:1],,,,
7-2[8:1],,,,
,,,,
{16}56,,,,{8}5,,
56,,57,,
{16}57,,,,{8}5,,
57,,58,,
{16}28,,,,{8}2,,
12,,21,,
{16}24,,,,{8}2,,
26,,62,,
{32}E6f,B5,B4,E4,{8}A3h[4:1],,,
,,{32}E2F,B1,B8,E8,{8}A7h[4:1],
,,,,
C,,E2/E8/E6/E4,,
Chf[1:1],,,,
,,,,
,,,,
,,1^4[8:1],,
{16}
8,,,,
7,,7,,
3,,,,
8-4[8:1],,,,
1,,,,
2,,2,,
6,,,,
2^5[8:1],,,,
7,,,,
8,,8,,
4,,,,
7-4[8:1],,,,
3,,,,
3,,3,,
34,,,,
4/3^8[8:1],,,,
,,,,
,,,,
78,,78,,
7^4[8:1]/8^3[8:1],,,,
,,,,
,,,,
2b,,,7b,
,,1b,,
8b^5[8:1],,,,
,,,,
3,,3,,
6,,6,,
E2f/B1,,,,
,,E8f/B8,,
,,,,
8x^5[8:1],,,,
{16}
1,,,,
2,,2,,
6,,,,
1-5[8:1],,,,
8,,,,
7,,7,,
3,,,,
7^4[8:1],,,,
2,,,,
1,,1,,
5,,,,
2-5[8:1],,,,
6,,,,
,,C/B2/B7,,
,,,,
1-4[8:1]/8-5[8:1],,,,
,,,,
,,,,
3,,3,,
2-5[8:1]/6-1[8:1],,,,
,,,,
,,,,
6,,6,,
37,,,,
{8}
1hb[8:2]/8hb[8:2],,,2hb[8:2]/5hb[8:2],
,,7hb[8:2]/5hb[8:2],,
,1hb[8:3],,,
8,,{16}81,,,,
{8}7p2[8:3],,,,
,,,,
{8}2q7[8:3],,,,
{8},,,,
8h[8:2],,,2h[8:2],
,,6h[8:2],,
,4h[8:2],,,
5h[8:2],,{16}1,,,,
{8}2,,2x,2x,
48,,,,
7,,7x,7x,
{8}15,,,,
1s5[8:4],,,,
,,,,
3,3,5,5,
{16}4,,4,,
6,,6,,
8x,,,1x,
1x,,1x,,
,,34,,
34,,,,
1x,,,8,
8x,,8x,,
{8},46,46,,
{8}2xh[2:1],,,,
4xh[2:1],,,,
7x<3[4:3],,,,
,,,,
2x>6[4:6],,,,
,,,,
,,,,
,,,,
,,5x,,
6x,,,,
3x,,4x>5[4:10],,
,,,,
,,,,
,,,,
,,,,
,,,,
,,,,
,,,,
8pp3<7[4:9],,,,
,,,,
,,,,
,,,,
,,,,
,,,4xw8[4:9],
,,,,
E
&inote_5=(175){1},,
{8}4-2<6[4:10]/5-7>3[4:10],,,,
,,,,
,,,,
,,,,
,,,,
,,,,
4h[4:1],,,4h[4:1],
,,3h[4:1]/4,,
,3h[4:1]/4,,,
2h[4:1],,4,,
3h[4:1]/4,,,4/5h[4:1],
,,3h[4:1]/4,,
,3qq8[4:2],,4,
,,B4/E4,,
6h[4:1],,,6h[4:1],
,,7h[4:1]/5,,
,4v2^3qq1[4:2],,5,
,,B5/B6,,
7h[4:1],,,7h[4:1]/8,
,,1h[4:1]/8,,
,1h[4:1]/2,,,
1,2,3/1-5[8:1],,
{8}1/3^8[8:1],,4,,
8,7,6/8-3[8:1],,
8/6^1[8:1],,5qq2[4:2],,
,,,,
1,,8,,
8-4[8:1],7,68,,
56,,3,,
1-5[8:1],2,13,,
{32}E3f,B3,B4,E5,{8},,{32}E4f,B4,B5,B6,
{8}E7,,{32}E7,B7,B8,E1,{8},
,{32}E2,B2,B3,E4,{8},,
46,7,46,,
3,3,4,,
2,4,5,6,
7,4,4,,
7,4,3,2,
{8}1x,,,,
,,,,
{8}1-4[8:13],,E8,,
B7,,B6,,
5-8[4:2],,,,
,,,,
7-4[8:11],,E1,,
B1,,B2,,
3-8[4:1],,,,
,,1,,
2^4v5^7b[8:13],,,,E7,,
E8,,C,,
E2,,E3,,
,,
8h[8:3],,,6h[8:3],
,,E5h[8:8],,
,A2h[8:5],,,
B3h[4:1],,,,
{16}17,,,2,
B4,,,,
17,,2,,
34,,,,
82,,,7,
B5,,,,
82,,7,,
65,,,,
78,,,2,
B4,,,,
18,,2,,
34,,,,
21,,,7,
B5,,,,
81,,7,,
6h[4:1]/5,,,,
{32}E8,B8,B1,E2,{8}A2h[8:2],,{32}E4,B4,B5,E6,
{8}A6h[8:2],,{32}E3,B3,B4,E5,{8}A5h[8:2],
,{32}E7,B7,B8,E1,{8}A1h[8:2],,
3h[8:2],,4,,
3h[16:1],3,4h[16:1],4,
A2h[16:1],A7h[16:1],B2h[16:1],B7h[16:1],
{16}E1h[16:1],,,,
,,,,
3,4,3,,
6,5,6,,
{8}
1-4[8:1],,8-5[8:1],,
3-8[8:1],,4-7[8:1],,
2-5[8:1],,6-1[8:1],,
4-1[8:1],,5-8[8:1],,
3-6[8:1],,2-7[8:1],,
1-4[8:1],,8-5[8:1],,
7-2[8:1],,6-3[8:1],,
4>7[4:1],,5,,
{8}6h[4:1],,,{24}6h[4:1]/B5,B4,E4,
{8}A3,,2h[4:1],,
,{24}2h[4:1]/B1,B8,E8,{8}A7,,
1h[4:1],,8h[4:1],,
6p3[8:3],,,,
8p5[8:3],,,,
2p7[8:3],,,,
,,,,
{16}56,,,B7,{8}5,5,
56,5,57,,
{16}57,,,E8,{8}5,5,
57,5,58,,
{16}28,,,E8,{8}2,2,
12,2,21,,
{16}24,,,B4,{8}2,2,
26,2,6h[4:1]/2,,
{32}E6f,B5,B4,E4,{8}A3h[4:1],,{32}E8f,B7,B6,E6,
{8}A5h[4:1],,{32}E2f,B1,B8,E8,{8}A7h[4:1],
,{32}E6f,B5,B4,E4,{8}A3h[4:1],,
Ch[4:1],,E2/E8/E6/E4,,
Chf[1:1],,,,
,,,,
,,,,
,,1^6[8:1],,
{16}
12,,,,
3,4,3,,
6,5,6,,
7^4[8:1],,,,
78,,,,
3,4,3,,
2,1,2,,
8^3[8:1],,,,
7/8,,,,
6,5,6,,
3,4,3,,
2^5[8:1],,,,
25,,,,
6,5,6,,
3,4,3,,
3^8[8:1],,,,
34,,,,
6,5,6,,
7,8,7,,
1^6[8:1],,,,
12,,,,
25,,,,
E5f/2b,,,7b/E5f,
,,E5f/1b,,
8b^5[8:1]/E5f,,,,
18,,,,
3,4,3,,
6,5,6,,
E2f/B1/B2/B7/B6/E7,,,,
,,E8f/B8/B7/B2/B3/E3,,
,,,,
1-4[8:1]/5-8[8:1],,,,
{16}
15,,,,
2,1,2,,
6,5,6,,
5-2[8:1]/7^4[8:1],,,,
57,,,,
3,4,3,,
7,8,7,,
8-3[8:1]/6^1[8:1],,,,
68,,,,
2,1,2,,
3,4,3,,
2^5[8:1]/4-7[8:1],,,,
24,,,,
,,C/B2/B7,,
,,18,,
2v5[8:1]/6^1[8:1],,,,
26,,,,
3,4,2,,
6,5,7,,
4^1[8:1]/8v5[8:1],,,,
48,,,,
6,5,8,,
3,4,1,,
48,,,,
{8}
1-5[8:1]/5,,1b/5b,7-4[8:1],
,4b/7b,2-5[8:1],,
2b/5b,8-4[8:1],,4b/8b,
2,,{16}1,8,1,8,
{8}2/7p2[8:3],,,,
,,,,
{16}2b,,8,8,
1,,2,2,
{8}1w5[8:1],,,,
1h[8:2],,B5,2h[8:2],
,B6,3h[8:2],,
B7,4h[8:2],,B8,
5h[8:2],,{16}1,8,7,6,
{8}15,,2x,3x,
48,6,15,3,
48,,7x,6x,
{8}15,2,37,8,
1s5[8:4]/5,,,,
,,,,
25,47,25,47,
{16}18,,E4/B4/B5/E6,,
1,8,2,7,
1x/8x,,,1xw5[8:1],
1x,,1x,,
,,34,,
34,,2,,
1x/7x,,,8xw4[8:1],
8x,,8x,,
{8},46,46,7,
{8}2,3,4,5h[8:3],
2,3,4,5,
2,3,4,5h[8:3],
2,3,4,5,
3,4,5,6h[8:3],
3,4,5,6,
2,3,4,5h[8:2],
3,4,5,6,
7,6,5,4h[8:3],
7,6,5,4,
7,6,5,4h[8:3],
7,6,5,4,
6,5,4,3h[8:3],
6,5,4,3,
7,6,5,4h[8:2],
6,5,4,3,
2b,,,,
,,,,
1bpp3<7b[4:9]*qq6>2[4:9],,,,
,,,,
,,,,
,,,,
,,,,
,,,5p4[4:9],
,,,,
E
