&title=Bloody Marquis
&artist=brz1128 vs. M-UE
&first=0.144
&des=JDJDH
&lv_5=14+
&inote_5=(220)(440)
{4}
,,,,
(220)
{1}
1>1[4:27],1,2,3,4,5,6,
{4}
7,,1-5b[8:1],1/C,
{8}
3-8[8:1]/7-4[8:1],,37,,,1v4[8:1]/5v8[8:1],,15,,37,26,,4/5h[8:2],,
{16}
6x,7x,8x,1x,
{8}
6-1[8:1]/2-5[8:1],,62,,,8v5[8:1]/4v1[8:1],,84,,62,48,,1/7h[8:1],
{16}
2x,3x,4x/6,,4x,,
{8}
5-1[8:1],5,3-8[8:1],3,6-1[8:1],6,2,3,
{16}
4,8,3,7,2,6,1,5,
8x,7,6,5,
{32}
4x/8,7,6,5,4,3,2,1,
{4}
8xs4[4:3],,,,
{24}
2x,,,,,,
1x/7x,B7,C,B3,,,
8x-4b[8:1]/1x,B1,C,B5,,,
3x/8b,,,,,,
{4}
2pp8[8:6],6,6,6,
5qq8[8:6],8,1,2,
3qq5[8:6],1,8,7,
6pp3[8:6],4,3,2,
1pp4[8:6],5h[8:1],6h[8:1],7h[8:1],
8qq1[8:6],3h[8:1],2h[8:1],3h[8:1],
4qq8[8:5],8h[8:1],7h[8:1],6,
{48}
5h[8:1],,,,,,1x,E1,B8,B7,E7,,
5h[8:1],,,,,,1x,E2,B2,B3,E4,,
{8}
7-2b[8:1],7,3-6b[8:1],3,
8b,,8/B5/B6,,8/B2/B3,8,8/B5/B6,,
8/B2/B3,,8/B5/B6,8,B2/B3,8,8/B5/B6,,
4,,4/B1/B2,,4/B6/B7,4,4/B1/B2,,
4/B6/B7,,4/B1/B2,4,B6/B7,4,4/B1/B2,,
8-4[8:1],8,3-8[8:1],3,6-2[8:1],6,1-6[8:1],1,
4,4,15,1,26,6,37,3,
{16}
8,4,7,3,6,2,5,1,
4x,3,2,1,
{32}
8x/4,3,2,1,8,7,6,5,
{4}
8x/4xp6p1[4:2]*p1[4:2],,,,
{8}
8b-6[8:1]/2b-6[8:1],,2/8p4[8:1],,3,1<6[8:1],6,1>4[8:1],4,1-5[8:1],5,1,,48,26,,
1b-3[8:1]/7b-3[8:1],,7/1q5[8:1],,6,8>3[8:1],3,8<5[8:1],5,8-4[8:1],4,8,,1,26,35,
4-8[8:1],4,7-4[8:1],7,1,2<5[8:2],6,2,,1-5[8:1],8,17,6,4,5,3,
7h[8:1],6,2h[8:1],3,8h[8:1],B6/E7,1h[8:1],B3/E3,
8-4[8:1],,8b>3[8:1]*<5[8:1],,8bw4[8:1],,8b,,
6-3[8:1]/2-6[8:1],,2-5[8:1]/6,,2x/7x,1<6[8:1],4,1p5[8:1],B3/E4,1v4[8:1],E3/A3,1,,26,48,,
3-6[8:1]/7-3[8:1],,7-4[8:1]/3,,7x/2x,8>3[8:1],5,8q4[8:1],B6/E6,8v5[8:1],E7/A6,8,,7,46,35,
2q6[8:1],2,8-4[8:1],8,1-5[8:1],1,7p3[8:1],7,2,2,35,5,46,4,57,7,
{16}
8,4,6,2,7,3,5,1,
4x,3,2,1,
{32}
8x/4x,3,2,1,8,7,6,5,
{4}
4-6-8-2-4[4:2]*<4[4:2],,,,
{8}
1bp5[8:1]/7bv4[8:1],,17,,26,8x,8x,8x,37,
{16}
4x,5x,
{8}
4x,4x,
3/5V37[8:2],2xh[16:1],2xh[16:1],2xh[16:1],1bs5[8:2],,,,6,8x,8x,8x,
4>7[8:2],,B6/B7,,5<2[8:2],,B3/B2,,
4bp7[8:1]*q8[8:1],,4,,62,4x,4x,4x,73,
{16}
8x,1x,
{8}
8x,8x,
7/1-7q3[8:2],6xh[16:1],6xh[16:1],6xh[16:1],
4V68[8:2],,B1/B2,,5V31[8:2],,B8/B7,,7h[8:1],8,1h[8:1],8,37,2,5,,
4b-1[8:1]/6b,,4x/8,,4-8[8:1],6,4x,7,16,
{16}
3,4,
{8}
3,25,1,8xh[16:1],8xh[16:1],8xh[16:1],
1bv4[8:1]/7bv4[8:1],,17,,35,6,2,8,1>3-5[8:2],,B6/B7,,8<6[8:1],,C,,
4x-8[8:1]/2,2,2,2,1x-5[8:1]/7,7,7,7,
46,3,25,6,37,8,26,1,
{16}
8,2,2,2,3x/1b,,,,1,7,7,7,6x/8b,,,,
17,6,5,4,2,3,4,5,
{32}
8,7,6,5,4,3,2,1,
{4}
8-5[8:1]/4p2b[4:15],4/8bp6[4:14],,,,,,,,,,,,,,,,
1z5[4:11]/5<7-3>1b[4:11],,,,,,,,,,,,
{8}
,,,3bh[8:2]/7bh[8:2],,,2>4[8:1]/8-4[8:1],1,
2-6[8:1]/8<6[8:1],,28,,,4-1[8:1]*-7[8:1],,4,,8,6/2-6[8:1],,8,,7<5[8:1]/1-5[8:1],,
7-3[8:1]/1>3[8:1],,71,,,5-8[8:1]*-2[8:1],,5,,1,3/7-3[8:1],,1-5b[8:1],,1b/C,,
8p4[8:1],8,2-6[8:1],2,7-3[8:1],7,4p8[8:1],4,5,6,7,8,1,2,3,4,
57,1,24,8,
{12}
3,1,3,6,8,6,
{4}
2-5[8:1]/7-4[8:1],27,
8/1w5b[8:1],1b`C,
{8}
7b/2b-6[8:1],6,2/8p4[8:1],1,38,1>4[8:1],6,7/1<6[8:1],8,3/1-5[8:1],2,15,,37,16,,
2b/7b-3[8:1],3,7/1q5[8:1],8,61,8<5[8:1],3,2/8>3[8:1],1,6/8-4[8:1],7,84,,62,3,5,
4v1[8:1],3,7v4[8:1],8,2,3>5[8:2],6,3,,1-5[8:1],8,17,6,4,5,3,
6h[8:1],7,3h[8:1],2,7h[8:1],B7/E8,2h[8:1],B2/E2,
{16}
8,,3x,4x,5x/7b,,6x,5x,4x/1b,,2x,3x,4x/8b,,,,
{8}
6bv3[8:1]/2bp6[8:1],,2-5[8:1]/6,,2x/7x,1-6[8:1],4,1-5[8:1],B3/E4,1<4[16:3],E3/A3,1,,8,26,,
3bv6[8:1]/7bq3[8:1],,7-4[8:1]/3,,7x/2x,8-3[8:1],5,8-4[8:1],B6/E6,8>5[16:3],E7/A6,8,,1,48,37,
2b-6[8:1]/6b,,2b/6b,8bv5[8:1]*v3[8:1],,8b,,2b/6b,,1,8,2,7-4[8:1],3-7[8:1],7,3,
{16}
6bV82[16:3],,,1,,,3,,4b-2[8:1],,,8,,,7,,
1b,,6x,5x,4x/2b,,3x,4x,5x/8b,,7x,6x,5x/1b,,,,
37,,6,4,5<7[8:1],,3,,2,,1,,8x,,7,,
62,,3,5,4>2[8:1],,6,,7,,8,,1x/7,,2,,
38,,2,7,1>3[8:1],,8,,6,,5,,4,3x,5,4,
6,,7,5,8,,1,,24,,3,,4,,5,,
26,,7,1,8<6[8:1],,2,,3/8x,,4,,5x,,6,,
73,,2,8,1>3[8:1],,7,,6/1x,,5,,4x/7,,3,,
25,,3,6,4>2[8:1],,5,,4x/7,,8,,1,2,8,1,
7,,6,8,5,,4,,31,,8,,
{8}
7<5[8:1]/1-5[8:1],8,
7b-3[8:1]/1b>3[8:1],,7b/1b,,4,5<8[8:1]*>2[8:1],,5,,1,3-7[8:1]/7-3[8:1],,37,,2>4[8:1]/8-4[8:1],,
2b-6[8:1]/8b<6[8:1],,2b/8b,,5,4>1[8:1]*<7[8:1],,4,,8,6/2-6[8:1],,2/8-4b[8:1],,8b/C,,
1q5[8:1],1,7-3[8:1],7,2-6[8:1],2,5q1[8:1],5,4,3,2,1,28,37,46,5,
{16}
6,7,8,1,3,2,1,8,
5,4,6,3,7,2,8,8,
1b-5[8:1],,8x,7x,1b>4[8:1],,7x,6x,1b-6[8:1],,6x-2[8:1],5x,1b>1b[4:30],,,,
{1}
1b,1,2,3,4,5,6,7,1w5b[18.33#96:1],,,
{8}
,,E
