&title=Surveiller et punir
&artist=cybermiso
&first=0.3899999
&lv_5=14
&des_5=chiens de garde
&inote_5=
(145){4}8b/2b-4pp6[2:1],,,8h[8:1],
1b/7b-5qq4[2:1],{8},,,,B1,B8,
{4}3/7h[8:1],{8}4,4,{4}6/2h[8:1],{8}5,5,
{16}3,7,3,7,3,7,3,7,{24}A3,D3,A2,D2,A1,D1,{16}A7,E7,B6,B5,
3x-8[8:1],3x,3x,3x,,,6x-1[8:1],6x,6x,6x,{32},,,,A1,D2,A2,D3,A3,D4,A4,D5,
{16}8b,,,7b/2b,,,{8}6b/3b,{2}5b-1[8:1]/4b-8[8:1],
{4}7h[8:1],7h[8:1],{16}7h[8:1],3,,,{8}2/7h[8:1],1,
{4}8/7h[8:1],{16}7h[8:1],,,3,7h[8:1],,,3,{8}7,3/7,
{4}2h[8:1],{16}2h[8:1]/6pp8[2:1],,,6,{4}2h[8:1],2h[8:1],
2h[8:1],{16}6/2h[8:1],,,5,3,6,2,7,{8}1,5,
3b/7,3,3,3,6h[8:1],5h[8:1],4h[8:1],3h[8:1],
6b,6,6,6,3h[8:1],4h[8:1],5h[8:1],6h[8:1],
{16}2,6,2,6,2,5,3,5,3,5,3,4,4,4,4,4,
3,6,1,8,{8}2pp4[8:1],B7/B6,{16}2,,,7,{8}3,{16}5,4,
{4}5b<8[4:1],{8}5,4,3>8[4:1],4,5,6,
7-3[4:1],6,5-1[8:1],5,{4}5b,{8}4,{16}5,3,
4V27[4:1],,,B6/B5,,,{8}B7/E7,{4}5b-1[8:1],5,
{8}7,{16}3,6,{8}1,5h[8:1],{4}2h[4:1],B8/B7,
6/2pp4[4:1],{8}2/5pp7[4:1],5,,3,3qq8[2:1],3,
{16}3/5,,,5,,,{8}5,{4}5b,{16}4-8[8:1],5,4,5,
{4}4-7[8:1]*-1[8:1],4b,{16}6/2,,,4,{8}3/5,1/7,
{16}5,5,5,5,{8}5h[8:1],3,{16}3/B7/B6,2,1,8,{8}5b,6,
4/5,3/6,{4}7h[8:1]/2v5[8:1],2v7[8:1],2,
{8}5/4,6/3,{4}2h[8:1]/7v4[8:1],{16}7,,,1,{8}7/1,2,
5/4,6/3,{4}7h[8:1]/2h[8:1],{8}5,{16}3,7,{8}1,6b,
5/4,3/6,{4}2h[8:1]/7h[8:1],{16}1-5[8:1],,,7,{8}1,8b,
7/2,6/3,{4}4h[8:1]/5v2[8:1],5v8[8:1],5,
{8}2/7,6/3,{4}5h[8:1]/4v1[8:1],{16}4,,,7,{8}7/5,4,
7/2b,6/3,{4}5h[8:1]/4h[8:1],{16}7,4,5,3,6,4,5,2,
{8}7,6/3,{16}4,4,5,5,3,3,6,6,2,2,7,7,
{8}1b,2,3<8<3[2:1],8,{2}3b,
{8}8,7,6,5,4/6,{16}5,6,{8}4,6/3,
8b,7,6pp8qq6[2:1],2,{2}6b,
{8}1,2,3,4,{16}5/3,,,4,{8}5,3/6,
2b/7,8,7/2,3,{16}3,5,4,5,4,6,4,5,
{8}6/4b,6,5/3,2,6-2[8:1],1-5[8:1],6,1,
8b,7,6/3,5,{24}8,1,2,5,{48},{16}5,{24}8,1,2,5,{48},{16}5,
{8}E8/E1/E2/B8/B1,,,,,,,5,
5bV71[4:1],,,2,2bV47[4:1],,,8,
8bV63[4:1],,,2,{4}2bV47[4:1],{8}5,5,
5,6,7/2,8,1/5,2,3/5,4,
5/2,6,1/7-3[8:1],7/1,{4}7/1-5[8:1],1,
4/6h[8:1],{8}6h[8:1],4,{4}3/6h[8:1],{8}6h[8:1],4,
3/6h[8:1],2,1/6h[8:1],8,7/6h[8:1],5,4/6h[8:1],3,
7,7,3,3,6,6,2v4[8:1],2,
{16},,,,7,7h[16:3],,,E1,E2,E3,E4,{8}5,{16}3,4,
2x,2x,2x,2x,5x,5x,5x,5x,3h[8:1],,,6h[8:1],,,3,3,
7,7,,2,{8}2,{32}8x,7x,6x,5x,{8}1h[16:1],{16}1,4,2,2,,,5x,
5x,5x,5x,2q7q3[8:3],2x,2x,2x,,,,,,,,,5h[8:1],
,,3h[8:1],,,{8}1h[8:1],{16},8h[8:1],,,{4}6h[8:1],
{8}4b/7b,{16}5,4,{8}6,7/3,1,{16}5,4,{8}5,6/3,
5,{16}4,6,{8}5,7/3,5/6,7/4,6/5,3/8,
6b,{16}5,4,{8}6/3,7,5/4,{16}B1,B2,{8}E3,B7/B6,
3h[8:1],{16}4,3,{8}4h[8:1],2h[8:1],{16}5x,5x,,3,{8}4/2,5,
6/7,{16}5,6,{8}4,7/3,2,{16}4,3,{8}4,5/2,
{16}3-6[8:1],3,4,4,,,,,{8}8/7,6/1,8/7,5/2,
4/3,4/3,4/1,4/1,4/3,3/4,7/3,3/7,
{12}4,3,5,4,{24}5,,,D3,D4/E4,D5,D6,D7/E7,D8,D1,D2/E2,D3,D4,D5/E5,D6,D7,
{8}1x,{16}5,4,{8}5-2[8:1],2,{4}5v7[8:1],5,
{8}8/6,{16}5,1,{8}5,3,2/4,5/2,7/2,6/2,
3/5,4,5/6-2[8:1],3,{4}6V84[16:3],6,
{8}3b,{16}5,3,4,6,8,4,{8}5,{16}4,5,{8}4/6,7/3,
{16}4,4,5,3,6v4[8:1],6,5,7,6-2[8:1],,,6x,{4}6bx,
{24}E1,E8,E7,4,{48},{16}3,E6,E7,E3,E2,{24}E1,E8,E7,5,,,{8}5,5,
{16}4,4,4,4,,,5/4,5/4,{4}5/4,{16}6/3,6/3,6/3,6/3,
3bx/6bx,,,5b/4b,,,{8}3bqq6[4:1]/6bp8[4:1],{2}6/3,
{8}5/4,3,5/6,{16}4,5,{8}5,{16}7,4,{8}6,8,
6/3,{16}2,3,{8}2,6,3h[8:1],6h[8:1],4h[8:1],7h[8:1],
3,2,1/8,7,6<2[8:1],5,4>8[4:1],3,
{4}4,{8}5-1[4:1],6,{4}5,B8/C/B7/B1,
{8}5-8[8:1],5,3-8[8:1],3,1-6[8:1],1,2-5[8:1],2,
2b,2,4,2/6,{16},2,1,8,7,6,5,4,
3b,2,{8}1,7/5,4,{16}6/5,4,{8}7,5/4,7,
5/3,2,5/3,7,5/3,1,5/3,8,
{24}D2,E2,C,E6,{12}D6,8bpp6[4:1],{24},{8}8,8,4,4,3,
3/8-4[8:1],2-6[8:1],8-5[8:1],2-5[8:1],8,2,8,2/8,
{16}4,7,1,5,{8}3b,5,7/3,1,5/3,7,
4/8,{24}E1,B1,B2,{8}4V28[4:1],4,{2}4/8v6[8:1],
{24}1,2,3,4,5,6,{8}7x/8x,1,2/3,{24}1,8,7,{8}5/6,2,
7b,{32}1,2,3,4,{8}8b,{32}4/7,8,1,2,{8}4,{32}4,8,7,6,{8}5,4,
{16}4,6,{8}1,8b/3,6,{16}4/6,5,{8}6/4,7b/2,4,
{16}6,4,5,2,7,4,5,3,{24}5,6,7,8,1,2,5,4,3,2,1,8,
7,5b,{12}5x,{24},5,{48},,,{16}3,,7,{12}7bx,{24}4,4,,6,,,3,7,,3,
{32}8b,7,6,5,{16}4,2,5,3,6b,3,{32}7b,8,1,5,,,{16}5,5b,5,,,4x,
4,4,4,5x,5,5,5,4bx,4,4,4,{32}5bx,4,5,4,5,4,5,4,
{1}5b,
E
