&title=[改]おどれフルファイアー
&artist=kagerow
&first=-0.03
&des=这歌谁投的
&lv_5=14
&des_5=炸飞投曲
&inote_5=
(180){4},,,,{8}2h[8:1],
{16}1,3,8,4,7,5,{8}6h[8:1],{16}8,7,1,6,2,5,
2,3,4,5,8,7,6,5,{8}8/4,5/1,{4}6/2h[4:1],
{16}8b,7,{8}6h[8:1],{16}2b,3,{8}4h[8:1],{16}8b,7,6,5h[8:1],,1,2,3,
5b,6,{8}7h[8:1],{16}3b,2,{8}1h[8:1],{16}5b,6,7,8h[8:1],,2,3,4,
{8}5/7,8,2/1,3,5/4,{16}6,5,{8}8h[8:1],2,
3-7[8:1],8,7,6,5h[4:1],{16}7,8,1,2,3,4,
{8}6-1[8:1],6,2-6[8:1],2,8h[2:1],{4},{8}5,
4h[8:1],7,6/4h[8:1],6,5/3-8[8:1],5,6/3b,6,
7b,6,5/4,3,8/2,{16}7,1,{8}7,2,
3b-7[8:1],3,4,5,6h[4:1],{16}8,1,2,3,4,5,
{8}8-6[8:1],8,2-4[8:1],2,1-5[8:1],1,4,3,
2h[8:1],{16}8,1,{8}8,8,7/1,7/1,6/2,6/2,
{4}3/5-1[8:1],5/2-4[8:1],2/8-6[8:1],8/2q6[8:1],
2b/5,{8}8,7,4b,3b/5b,{4}2b/6h[4:1],
1>4[8:1],1/6-8[8:1],6/2q6[8:1],2/7-4[8:1],
7/1b-5[8:1],{8}7s3[4:1],6,{2}7b,
{16}2,4,{8}3,{16}6,4,{8}5,{16}3,5,{8}4,{16}7-3[16:1],5,{8}6,
{4}4b/7,{8}2-6[8:1],1-5[8:1],2b-4[8:1],1b,{4}2b,
{16}7,5,{8}6,{16}3,5,{8}4,{16}6,4,{8}5,{16}2-6[16:1],4,{8}3,
{4}5b/2,{8}8bv3[8:1],3>6[4:1],{2}8b,
{8}2,3,4/5,6,1/7,{16}2,3,{8}5/4,6,
7/5,8,1/2,3,7/4h[8:1],{16}7,6,4,3,2,1,
{8}6-1[8:1],6,5-2[8:1],5,6h[2:1],{4},{8}2,
2h[8:1],6,5/3h[8:1],5,6/4-8[8:1],6,4b/7,7,
6,5,4/3,2,1/8,{16}7,6,{8}5/3,2,
1/7,6,5/4,3,2/8h[8:1],{16}2,3,8,7,6,5,
{8}2>5[8:1],2,1v6[8:1],1,{4}3-8[8:1],{8}5,5,
6/1,{16}7,8,{8}7,1,2/8,7/3,{4}4/6h[4:1],
{16}4,6,4,6,3,7,3,7,2,3,4,5,8b,7,6,5,
3,5,3,5,2,6,2,6,1,2,3,4,1b,8,7,6,
2b,3,4,5,6,7,8,1,2/7b,6,5,4,3,2,1,8,
2b,3,4,5,8b,7,6,5,1b,2,3,4,1b,8,7,6,
2,5,2,5,1,2,3,4,7,5,7,5,8,7,6,5,
1,2,3,4,7,6,5,4,8,7,6,5,4/8,3/7,2/6,1/5,
{4}4/8-3[8:1],{8}6,7,{16}8,7,6,5,{8}4/3,2,
1-4[8:1],8,7,6,{16}5,6,7,8,{8}1/3,4b,
8-5[8:1],4,3,2,{16}1,2,3,4,{8}7/5,7,
4-8[8:1],7,6,5,{16}1,2,3,4,{8}5/6,7b,
{16}8>3[8:1],7,6,5,{4}4,{16}4>1[8:1],5,6,7,{4}8,
{16}8,7,6,5,{8}4/8-4[8:1],1-5[8:1],8-6[8:1],1,{4}8b,
{16}4<7[8:1],3,2,1,{4}8,{16}8<5[8:1],1,2,3,{4}4,
{16}4,3,2,1,{8}8/4-2[8:1],5-1[8:1],4-8[8:1],5,{4}4b,
{16}6,1,{8}6,2/7,3,{16}7,6,5,4,{8}2,3,
{16}4,5,{8}4,3/6,7,{16}2,8,2,8,1b,1,{8}1,
{16}8,2,{8}8,3/7,4,{16}7,6,5,4,{8}2,3,
{16}7,4,{8}7,2/6,2,{16}7,1,7,1,8b,8,{8}8,
{16}7,6,5,4h[16:5],{8}8,1,{16}2,3,4,5h[16:5],{8}1,8,
{16}7,6,5,4h[16:5],{8}8,1,{16}2,3,4,5,8,7,6,5,
8,1,2,3h[16:5],{8}7,8,{16}1,8,7,6h[16:5],{8}2,1,
{16}8,1,2,3h[16:5],{8}7,8,{16}1,8,7,6,1,2,3,4,
6,5,6,5,,7/4,,2,{8}1,8,4/7b,6,
{16}3,4,3,4,,5/2,,7,{8}8,1,5/2b,3,
{16}4,5,4,5,,3/6,,1,{8}8,2/7,3/6b,5,
{16}3,4,3,4,,5/2,,6,4,5,{8}3h[8:1],{16}6b,4,{8}7h[8:1],
{16}2,4,3,6,4,5,3,5,4,7,5,6,1,2,3,4,
7,5,6,3,5,4,6,4,5,2,4,3,8,7,6,5,
3,4,2,5,4,6,4,5,3,6,5,7,1,2,3,4,
6,5,7,4,5,3,5,4,6,3,4,2,8,7,6,5,
2,4,3,6,4,5,2,4,3,6,4,5,1,2,3,4,
7,5,6,3,5,4,7,5,6,3,5,4,8,7,6,5,
2,4,3,5,1,7,2,8,4,6,3,5,2,8,1,7,
3,4,{8}1b,{16}6,5,{8}8b,{16}3,4,3,8b,,4,5,4,
{8}7b-4[8:1],7,8,1,2v5[8:1],{16}8,8,{4}2b,
{8}7-4[8:1],7,8,1,2>5[8:1],{16}8,8,{4}2b,
{8}6-1[8:1],{16}4,4,{8}6,3,{4}2-6[8:1],8b,
{8}7<4[8:1],7,8p2[4:1],8,{2}6h[4:1],
{8}2>5[8:1],2,1,8,7v4[8:1],{16}1,1,{4}7b,
{8}2-5[8:1],2,1,8,7<4[8:1],{16}1,1,{4}7b,
{8}3-8[8:1],{16}5,5,{8}3,6,{4}7-3[8:1],1b,
{8}2>5[8:1],2,1V74[16:5],1,{2}3h[4:1],
{8}5/3h[16:1],5,5/3h[16:1],5,6/2h[16:1],6h[16:1],{4}4b,
{8}4/6h[16:1],4,4/6h[16:1],4,3/7h[16:1],3h[16:1],{4}5b,
{8}2/4h[16:1],4,4/2h[16:1],2,2h[16:1]/4h[16:1],3h[16:1]/5h[16:1],{4}4b,
{8}5/7h[16:1],7,7/5h[16:1],5,7h[16:1]/5h[16:1],6h[16:1]/4h[16:1],{4}5b,
{8}4h[16:1]/3h[16:1],4h[16:1]/3h[16:1],{4}5/2b,{8}6h[16:1]/5h[16:1],6h[16:1]/5h[16:1],{4}4/7b,
{8}1h[16:1]/2h[16:1],1h[16:1]/2h[16:1],{4}8/3b,{8}7h[16:1]/8h[16:1],7h[16:1]/8h[16:1],{4}1/6b,
{8}5h[16:1]/4h[16:1],5h[16:1]/4h[16:1],6h[16:1]/3h[16:1],6h[16:1]/3h[16:1],{16}2,7,2,7,1,8,1,8h[16:9],
{8},1h[16:1],1b,1b,{2}1bs5[16:3],
{4}8<5[8:1],8/3-8[8:1],3/7v4[8:1],7/1,
5/2bv5[8:1],{8}1/2,8,7b,3b,{4}5b/1b>4[8:1],
1/6-2[8:1],6/3-8[8:1],3/7<4[8:1],7/2-6[8:1],
2/7b-3[8:1],{8}4z8[8:3],5,{2}4b,
{16}7,5,{8}6,{16}3,5,{8}4,{16}6,4,{8}5,{16}2-6[16:1],4,{8}3,
{4}5b/2,{8}7-3[8:1],8-4[8:1],7b-5[8:1],8b,{4}7b,
{16}2,4,{8}3,{16}6,4,{8}5,{16}3,5,{8}4,{16}7-3[16:1],5,{8}6,
{4}4b/7,{8}1bqq7[8:1],7>1[8:1],{2}1b>4[8:1]*q5[8:1],
{16}7,1,{8}7,{16}2,4,{8}2,{16}7,5,{8}7,{16}3-7[8:1],1,{8}3,
{4}7b,{8}6-8[8:1],2-4[8:1],6b-2[8:1],2b,{4}6b,
{16}3,1,{8}3,{16}6,4,{8}6,{16}1,7,{8}1,{16}6-2[8:1],4,{8}6,
{4}3b-8[8:1],{8}7bpp5[8:3],6b,{2}7b,
{16}2,4,{8}2,{16}3,5,{8}3,{16}4,6,{8}4,{16}5-1[8:1],7,{8}5,
5b,{16}6,6,{8}8-4[8:1],7-3[8:1],8b-2[8:1],7b,{4}8b,
{16}7,5,{8}7,{16}6,4,{8}6,{16}5,3,{8}5,{16}4-8[8:1],2,{8}4,
4b,{16}2,2,{8}1b<3[8:3],2,{2}1b,
{8},2,2/4,2,2/7,{16}3,4,{8}2,2,
5/3,{16}6,5,{8}7,7,6/4,{16}3,4,{8}2,2,
1/7b,{16}6,5,{8}7,3,2b/8,{16}3,4,{8}2,6,
{16}1b,8,1,8,2,7,2,7,{8}3b,{16}5,4,{8}7b,3b,
{24}8/2,3,4,5,{12},{24}1/7,6,5,4,{12},{24}8/2h[96:1],3,4,5h[96:1],6,7,8/4h[96:1],5,6,7h[96:1],8,1,
{4}2w6[8:1],2bpp5[2:3]*qq7[2:3],
E
