&title=爆音峠岬
&artist=ユナイテッド・メルトダウン・オ嬢(†Sennzai†ひめりんご†)
&first=0.3
&des=腱鞘炎
&wholebpm=105
&des_5=腱鞘炎
&lv_5=13+
&lv_6=13+
&inote_5=(105)
{1},
{4}1v2-4[4:1],6,5v6-8[4:1],3,
4h[2:1],2,5h[2:1],6,
{8}4-1<8-3<4[4:1],,5,6,7-2<1-6<7[4:1],,5,4,
{8}3h[2:1],,2,4,5h[2:1],,6,7,
8-4>2[4:1],7,B6/E6/E7,,1-5<7[4:1],2,B3/E3/E4,,
4,3,2h[4:1]/B8/E1/E8,4,5,6,7h[4:1]/B1/E1/E2,5,
{4}4q1>4[4:1],E3/B2/B3,8q5<8[4:1],E7/B6/B7,
4q5[4:1],,Ch[256:1],,
{8}8b,6,5,4,3V57[8:1],3V17b[8:3],,,
4,4,5pp5[8:1],5qq5b[8:3],,,,,
,7v6[8:1],3v2b[8:3],,,4,5,6,
7V53[8:1],2V46b[8:3],,,,,8-6-1-5-2-4[2:1],7-5-8-4-1-3b[2:3],
{1},
{8},,,,,,2<1v8<7[4:1],3<4v5<6>5v4>3b[8:13],
,,,7x>8v1>2[4:1],7,,,,
{1},
{64}E1f,B1,B8,,{32},,,5x-1-6-8[4:1],,,,,,,,,4x>7-1v2-4[8:4],,{4},{32},,,,B5/E5f/B4,,,,
{8}6x-8-5-1b[4:3],,,4x,,4x,,4x,
{16}2,2,4,5,7,7,5,4,3,3,4,5,6,6,5,4,
{32}3,4,3,4,2,5,2,5,{32}1,2,3,4,51,2,3,4,
{64}5x/2x-7[8:1],3xpp1[32:7]/E6/A6/D7/A7/D8,,,{32},,{8},,,
{32}7hbx[16:1],,5,6,,,4,,2h[16:1],,4,3,,,5,,{16}6/8-4[16:1],,2-7[16:1]*-5[16:1]/4,,,,,,
{16}1-3[16:1],7-5[16:1],,8,1-5[16:1],7-3[16:1],,8,1>6b[8:2],7,,,{12}1x-6-1[8:1]/D6/E6/B5,D7/E7/B6,D8/E8/B7,
{16},,,5,7-4[16:1],4-1[16:1],1-5[16:1],5-8[16:1],7x-2-7[8:1],,,,,,,,
{4}Ch[8:6],,{16},,,{64}E8,B8,B1,E2f,{4},
{16}2hbx[8:1],4,5,8h[8:1],6,5,4-1[16:1],4-7[16:1],8-4b[4:1],8,,,,1,2,3h[8:1],
,8b,8b,8b,8b,8b,8b,8b,{16}E7f,,,,,{64},E3,B3,,{16},,
{32}6,6,5,,{16}7,5,3-6[16:1],6,7<4b[16:4],2,3-8-3[8:1],,,,,,,,
2h[16:2]/7,6,5,4,1h[8:1]/3qq3b[4:1],4,5,6,3x-6[16:1]*<6[16:1]/7h[16:3],,,,,E6f,,,
1,2,2,2,5,6,6,6,2,3,5,6,3-7[16:1],4,6-4[16:1],7,
{8}3-1[16:1],6pp4[8:1],3qq5b[8:3],6,3x,5,6,7,
{16}8,1,2,2,4,5,6,6,1,2,5,4,2-5[16:1],3,6-1[16:1],5,
{8}2<7[16:1],6>3[16:1],2-5[16:1]*<1-6b[16:6],6,2x,,5qq4[8:1],4-6z2v1-7b[8:13],
{16}5bx,,,,,,1x,,D1f,,E1,A8,,E7,B6,E6,
{24}B5,,,A7,E7,A6,E6,A5,E5,A4,E4,A3,E3,A2f,,,,,{16}6x,,6x,,
{16}1bx/8<4[16:2],,1x,,1x,,1x,,1bx/3x<7b[4:3],,1x,,1x,,1x,,
1bx,1x,1x,1x,{24}1bx,1x,1x,1x,1x,1x,{32}1bx,1x,1x,1x,1bx,1x,1x,1x,{16}1bx,1x,1x,1x,
{16}B5/E5f/B4,,6x,,,,6,,{64}E1f,B1,B8,,{16},2x,,,,2,,
{16}B7/E7/B6,,8x,,8x,,8,,{64}E3,B2,B3,,{16},4x,,4x,,4,,
{16}56,7,7,7,18,2,2,2,34,5,6,6,78,1,2,2,
(210){16}3b,5,3,5,4,6,4,6,5,7,5,7,6x,8x,6x,8x,{4}5bx-2<7[16:6]*-2<7[16:6],,,Ch[512:1],
{8}6h[16:1],5h[16:1],6h[16:1],6h[16:1],5h[16:1],4h[16:1],5h[16:1],4h[16:1],{16}3,4,3,4,3,,5,,{8}1bx/2bx,1bx/2bx,7bx/8bx,7bx/8bx,
6,6,78,78,{16}2,1,2,1,2,,3,,{8}4bx/5bx,6bx/7bx,8bx/1bx,2bx/3bx,5bx-1[8:1]/4bx-8[8:1],,,,
3h[16:1],4h[16:1],3h[16:1],3h[16:1],{16}5,4,5,4,{8}5,3,6h[16:1],6h[16:1],5h[16:1],6h[16:1],4h[16:1],4h[16:1],5h[16:1],6h[16:1],
{16}5bx,4,3,2,{32}1x/A8,E8,A7,E7,A6,E6,A5,E5,{8}A4/1h[16:1],1h[16:1],2h[16:1],2h[16:1],{8}3bx/4bx,3bx/4bx,7bx/8bx,5bx/6bx,1bxv6[8:1]/2bx-6[8:1],3bx/4bx,,,
8-4[8:1],2,8-6[8:1],2,8-2[8:1],3,8,3,5-1[8:1],3h[16:1],5-7[8:1],3h[16:1],5-3[8:1],2h[16:1],5,1,
{16}1,8,1,8,1,,7,,{8}6h[16:1],5h[16:1],4h[16:1],3h[16:1],1bx/2bx,7bx/8bx,5bx/6bx,3bx/4bx,1bx/2bx-4[8:1],,6,6,
1-5[8:1],7h[16:1],1>3[8:1],8h[16:1],1<7[8:1],7h[16:1],1,6h[16:1],4-8[8:1],6h[16:1],4>2[8:1],5h[16:1],4<6[8:1],6h[16:1],4,7h[16:1],
{16}1bx,,7,8,7,,3,4,3,,6,5,6,,2,1,{32}2bx,3x,4x,5x,6x,7x,8x,1x,2x-4-1-5-8-6[2:1],3x,4x,5x,6x,7x,8x,1x,{2}2bx,
(105){64}A6,E6f,A5,,{16},,,8xqq8pp8[8:6],,,,,,,,,2-4v5-7[8:5],,,
,,,,,,,,E2f/A1/A2,,,8xqq8pp8b[8:15],,,,,
{16},,,,,,,4-8[16:1],,,,,,,,,
{1},
{64}B3/B2/E4,B8,B7,E7,{16},,,{4}6bxv1b[16:28]/4bxv1b[16:28],,,,,,,
{16}E2f/A1,,E7f,E8f,,B4/E5f,,E1f,E3f/B2/B3/A2/A3/D3,E8f,E7f,E5f/B4/B5/A4/A5/D5,,,,Cf/A2/B2/A3/B3/A6/B6/A7/B7/E3/E7,
{8},,,,,,,A5/B5/C/A4/B4/A3/B3/A2/B2/E5/E4f/E3,
,,{32},E8f/A7/A8/B7/B8/C/D1/D7,,,{8},,,
{64}A2/A3/A4/A5/A6/B2/B3/B4/B5/B6/D3/D4/D5/D6/E3f/E4/E5/E6,,,,,,
A2/A3/A4/A5/A6/B2/B3/B4/B5/B6/D3/D4/D5/D6/E3/E4f/E5/E6,,,,,,
A2/A3/A4/A5/A6/B2/B3/B4/B5/B6/D3/D4/D5/D6/E3/E4/E5f/E6,,,,,,,
A2/A3/A4/A5/A6/B2/B3/B4/B5/B6/D3/D4/D5/D6/E3/E4/E5/E6f,,,,,,,
A2/A3/A4/A5/A6/B2/B3/B4/B5/B6/D3/D4/D5/D6/E3/E4/E5f/E6,,,,,,,
A2/A3/A4/A5/A6/B2/B3/B4/B5/B6/D3/D4/D5/D6/E3/E4f/E5/E6,,,,,,Chf[64:73],
{8},,,,,
E
&inote_6=(105)
{1},
{4}1v2-4[4:1],6,5v6-8[4:1],3,
4h[2:1],2,5h[2:1],6,
{8}4-1<8-3<4[4:1],,5,6,7-2<1-6<7[4:1],,5,4,
{8}3h[2:1],,2,4,5h[2:1],,6,7,
8-4>2[4:1],7,B6/E6/E7,,1-5<7[4:1],2,B3/E3/E4,,
4,3,2h[4:1]/B8/E1/E8,4,5,6,7h[4:1]/B1/E1/E2,5,
{4}4q1>4[4:1],E3/B2/B3,8q5<8[4:1],E7/B6/B7,
4q5[4:1],,Ch[256:1],,
{8}8b,6,5,4,3V57[8:1],3V17b[8:3],,,
4,4,5pp5[8:1],5qq5b[8:3],,,,,
,7v6[8:1],3v2b[8:3],,,4,5,6,
7V53[8:1],2V46b[8:3],,,,,8-6-1-5-2-4[2:1],7-5-8-4-1-3b[2:3],
{1},
{8},,,,,,2<1v8<7[4:1],3<4v5<6>5v4>3b[8:13],
,,,7x>8v1>2[4:1],7,,,,
{1},
{64}E1f,B1,B8,,{32},,,5x-1-6-8[4:1],,,,,,,,,4x>7-1v2-4[8:4],,{4},{32},,,,B5/E5f/B4,,,,
{8}6x-8-5-1b[4:3],,,4x,,4x,,4x,
{16}2,2,4,5,7,7,5,4,3,3,4,5,6,6,5,4,
{32}3,4,3,4,2,5,2,5,{32}1,2,3,4,51,2,3,4,
{64}5x/2x-7[8:1],3xpp1[32:7]/E6/A6/D7/A7/D8,,,{32},,{8},,,
{32}7hbx[16:1],,5,6,,,4,,2h[16:1],,4,3,,,5,,{16}6/8-4[16:1],1,2-7[16:1]*-5[16:1],3,48
,,,,
{16}1-3[16:1],7-5[16:1],,8,1-5[16:1],7-3[16:1],,8,1>6b[8:2],7,,,{12}1x-6-1[8:1]/D6/E6/B5,D7/E7/B6,D8/E8/B7,
{16},,,5,7-4[16:1],4-1[16:1],1-5[16:1],5-8[16:1],7x-2-7[8:1],,,,,,,,
{4}Ch[8:6],,{16},,,{64}E8,B8,B1,E2f,{4},
{16}2hbx[8:1],4,5,8h[8:1],6,5,4-1[16:1],4-7[16:1],8-4b[4:1],8,,,,1,2,3h[8:1],
,8b,8b,8b,8b,8b,8b,8b,{16}E7f,,,,,{64},E3,B3,,{16},,
{32}6,6,5,,{16}7,5,3-6[16:1],6,7<4b[16:4],2,3-8-3[8:1],,,,,,,,
2h[16:2]/7,6,5,4,1h[8:1]/3qq3b[4:1],4,5,6,3x-6[16:1]*<6[16:1]/7h[16:3],,,,,E6f,,,
1,2,2,2,5,6,6,6,2,3,5,6,3-7[16:1],4,6-4[16:1],7,
{8}3-1[16:1],6pp4[8:1],3qq5b[8:3],6,3x,5,6,7,
{16}8,1,2,2,4,5,6,6,1,2,5,4,2-5[16:1],3,6-1[16:1],5,
{8}2<7[16:1],6>3[16:1],2-5[16:1]*<1-6b[16:6],6,2x,,5qq4[8:1],4-6z2v1-7b[8:13]*-6-8[16:3],
{16}5bx,,,,,,1x,,D1f,,E1,A8,,E7,B6,E6,
{24}B5,,,A7,E7,A6,E6,A5,E5,A4,E4,A3,E3,A2f,,,,,{16}6x,,6x,,
{16}1bx/8<4[16:2],,1x,,1x,,1x,,1bx/3x<7b[4:3],,1x,,1x,,1x,,
1bx,1x,1x,1x,{24}1bx,1x,1x,1x,1x,1x,{32}1bx,1x,1x,1x,1bx,1x,1x,1x,{16}1bx,1x,1x,1x,
{16}B5/E5f/B4,,6x,,,,6,,{64}E1f,B1,B8,,{16},2x,,,,2,,
{16}B7/E7/B6,,8x,,8x,,8,,{64}E3,B2,B3,,{16},4x,,4x,,4,,
{16}56,7,7,7,18,2,2,2,34,5,6,6,78,1,2,2,
{32}3b,5,3,5,4,6,4,6,5-2<7[16:4]*-2<7[16:4],7,5,7,6x,8x,6x,8x,{8}5bx,,,Ch[512:1],
{16}6h[32:1],5h[32:1],6h[32:1],6h[32:1],5h[32:1],4h[32:1],5h[32:1],4h[32:1],{32}3,4,3,4,3,,5,,{16}1bx/2bx,1bx/2bx,7bx/8bx,7bx/8bx,
6,6,78,78,{32}2,1,2,1,2,,3,,{16}4bx/5bx,6bx/7bx,8bx/1bx,2bx/3bx,5bx/4bx,,,,
3h[32:1],4h[32:1],3h[32:1],3h[32:1],{32}5,4,5,4,{16}5,3,6h[32:1],6h[32:1],5h[32:1],6h[32:1],4h[32:1],4h[32:1],5h[32:1],6h[32:1],
{32}5x,4,3,2,{64}1x/A8,E8,A7,E7,A6,E6,A5,E5,{16}A4/1h[32:1],1h[32:1],2h[32:1],2h[32:1],{16}3bx/4bx,3bx/4bx,7bx/8bx,5bx/6bx,1bx/2bx,3bx/4bx,,,
8-4[16:1],2,8-6[16:1],2,8,3,8,3,5-1[16:1],3h[32:1],5-7[16:1],3h[32:1],5,2h[32:1],5,,
{32}1,8,1,8,1,,7,,{16}6h[32:1],5h[32:1],4h[32:1],3h[32:1],1bx/2bx,7bx/8bx,5bx/6bx,3bx/4bx,1bx/2bx,,6,6,
1-5[16:1],7h[32:1],1>3[16:1],8h[32:1],1,7h[32:1],1,6h[32:1],4-8[16:1],6h[32:1],4>2[16:1],5h[32:1],4,6h[32:1],4,7h[32:1],
{32}1bx,,7,8,7,,3,4,3,,6,5,6,,2,1,{64}2bx-4-1-5-8-6[4:1],3x,4x,5x,6x,7x,8x,1x,2x,3x,4x,5x,6x,7x,8x,1x,{4}2bx,
{64}A6,E6f,A5,,{16},,,7x-3-1-7[8:3],,,,,,,,4x-6v4>6[8:5],,,,
,,,,,,,,E4f/A3/A4,,,5xqq5pp5b[8:15],,,,,
{16},,,,,,,5xv3V17v5b[8:9],,,,,,,,,
{1},
{64}B3/B2/E4,E7,B7,B8,{16},,,{64}1bxv4b[4:5]*v6b[4:5]/5bx,2x/6x,3x/7x,4x/8x,{16},,,{4},,,,,,
{16}E2f/B2,,E6f,E7f,,B4/E4f,,E1f,E3f/B2/B3/A2/A3/D3,E8f,E7f,E5f/B4/B5/A4/A5/D5,,,,Cf/A2/B2/A3/B3/A6/B6/A7/B7/E3/E7,
{8},,,,,,,A5/B5/C/A4/B4/A3/B3/A2/B2/E5/E4f/E3,
,,{32},E8f/A7/A8/B7/B8/C/D1/D7,,,{8},,,
{64}A2/A3/A4/A5/A6/B2/B3/B4/B5/B6/D3/D4/D5/D6/E3f/E4/E5/E6,,,,,,
A2/A3/A4/A5/A6/B2/B3/B4/B5/B6/D3/D4/D5/D6/E3/E4f/E5/E6,,,,,,,
A2/A3/A4/A5/A6/B2/B3/B4/B5/B6/D3/D4/D5/D6/E3/E4/E5f/E6,,,,,,,
A2/A3/A4/A5/A6/B2/B3/B4/B5/B6/D3/D4/D5/D6/E3/E4/E5/E6f,,,,,,,
A2/A3/A4/A5/A6/B2/B3/B4/B5/B6/D3/D4/D5/D6/E3/E4/E5f/E6,,,,,,,,
A2/A3/A4/A5/A6/B2/B3/B4/B5/B6/D3/D4/D5/D6/E3/E4f/E5/E6,,,Chf[32:37],,
{8},,,,,
E
