&title=大地に咲く旋律
&artist=幽閉サテライト
&first=-1.652
&des=蓬莱山香蒲
&des_5=蓬莱山香蒲
&lv_5=12+
&inote_5=(120){4},{8},,,,,,,,,5h[4:3]/1>7[2:1],
,,
,,,,,4h[4:3]/8<2[2:1],
,,,,,,,8h[4:3]/6V84[2:1],
,,,,,,,7p3<7[8:5]/3p7>3[8:5],
,,,,,,,4b/5b,
3,8/2,{16}6,4,5,3,
{8}4h[4:1],2,1,5b/4b,6,1/7,{16}3,5,4,6,
{8}5h[4:1],7,8,1b-6[8:1]/2b-5[8:1],,,,7b-4[8:1]/8b-3[8:1],
,,,8b<5[8:1]/1b>4[8:1],,,,,1/8,
2/7,3/6,5b/4bh[8:1],{16}5,4,{8}6,7/3,4/5h[8:1],
{16}4,5,{8}3,2/6,4bw8[8:3],,,,,,,,1b,
,,,7<5[8:1],
{16},,,,3,4,{8}2,{16},1h[16:3],,,{8}3h[8:1],5h[16:3],
{16},7h[16:3],,,{8}2-4[8:1],2b,{16},,6,5,7,4,{8}8<5[8:1],
{16},,,,3,4,{8}2h[16:3],{16},3h[16:3],,,{8}4h[8:1],6-3[8:1],
,6/2-7[8:1],,2b/6,,5b,,2>4[8:1],
{16},,,,6,5,{8}7,{16},8h[16:3],,,{8}6h[8:1],4h[16:3],
{16},2h[16:3],,,{8}7-5[8:1],7b,{16},,3,4,2,5,{8}1>4[8:1],
{16},,,,6,5,{8}7h[16:3],{16},6h[16:3],,,{8}5h[8:1],4bw8[2:1],
,,,,,,,8-4[8:1],
,2-5[8:1],,6-1[8:1],,2,3,8/4h[8:1],
7,7/3h[8:1],6,6-3[8:1]/2-7[8:1],,,,1-5[8:1],
,7-4[8:1],,3-8[8:1],,7,6,1/5h[8:1],
2,2/6h[8:1],3,3-6[8:1]/7-2[8:1],,,,1-5[8:1],
,2-6[8:1],,3-7[8:1],,4,4,8/4h[8:1],
7,7/3h[8:1],6,6-1[8:1]/2-5[8:1],,,,8-4[8:1],
,7-3[8:1],,6-2[8:1],{16},5,{8}5,4,4bqq1[16:5]/8bqq5[16:5],
{16},,,,,,,,,,5,5,3,3,{8}2>5[8:1],
{16},,,,6,6,{8}7-2[8:1],{16},5,,,{8}4,3h[16:3],
{16},1v6[8:1],,,{8}4,4b,{16},,3,3,5,5,{8}6<1[8:1],
{16},,,,3,3,{8}4-1[8:1],{16},7,,,{8}6,5-8[8:1]*-2[8:1],
,5w1[8:1],,5b,,,,7<5[8:1],
{16},,,,3,3,{8}2-7[8:1],{16},4,,,{8}5,6h[16:3],
{16},8v3[8:1],,,{8}5,5b,{16},,6,6,4,4,{8}3>1[8:1],
{16},,,,6,6,{8}5-8[8:1],{16},2<7[8:1],,,{8}2,5,
5,3,3,7,7,1,1,{32}8,7,6,5,
4,3,2,1,8,7,6,5,{4}4/Cf,{8}4/5,6/2-6[8:1],4/8-4[8:1],6/2q5[4:1],
8,2,,,8/1,3/7-3[8:1],5/1-5[8:1],3/7>6[4:1],
1,7,,,5/4,6/2qq6[4:1],8/4,2/6>1[4:1],
,4h[4:1],,,1/2,6/5,7V53[8:1]/8V64[8:1],4V28[8:1]/3V17[8:1],
,,,,5/4,3/7-3[8:1],5/1-5[8:1],3/7p4[4:1],
1,7,,,1/8,6/2-6[8:1],4/8-4[8:1],6/2<3[4:1],
8,2,,,4/5,6,7/5,8-4[8:1],
{16}1,7,{8}8/6,7,1-5[8:1],{16}8,2,{8}1/3,2b,{16}3,3,
4,4,5,5,6,6,7,7,{8}8-3[8:1],3-8[8:1],8-5[8:1],4-8[8:1]*-1[8:1],
5,4b-7[8:1],,4x,1-6[8:1],6-1[8:1],1-4[8:1],5-1[8:1]*-2[8:1],
4,5b-8[8:1],,5x,1-5[8:1],5-1[8:1],1-4[8:1],6-1[8:1]*-2[8:1],
7,6b-3[8:1],,6x,8>2[8:1],2>4[8:1],4<6[8:1],6<8>2[4:1],
,,,,3-6[8:1],6-3[8:1],7-4[8:1],8-5-7[4:1]*-3-1[4:1],
7,8b,,,6-3[8:1],3-6[8:1],2-5[8:1],1v6<8[4:1]*v4>2[4:1],
2,1b,,,{4}1/8-5[8:1],{8}8,4-1[8:1],
{16}3,5,{8}4/6,8,7/5-8[8:1],{16}6,4,{8}5/3,1,{16}7,7,
6,6,5,5,4,4,3,3,{8}2h[8:1],5h[8:1],1h[8:1],6b<1[8:1],
{16}7,5,{8}6/4,2,3b>8[8:1],{16}2,4,{8}3/5,7,{16}4,5,
3,4,2,5,1,6,8,7,1,8,2,1,3,8,4,7,
5,6,7,5,8,4,1,3,2,1,3,8,4,7,{8}Cf/5b<8[8:1],
{16},,,,1,2,{8}3<6[8:1],{16},7,,,{8}8p4[8:1],2p6[8:1],
{16},2,,,{8}5b<8[8:1],5b,{16},,1,2,3,4,{8}5>2[8:1],
{16},,,,1,8,{8}7<4[8:1],{16},7,,,{8}1,8-3[8:1]/4-7[8:1],
,4/8,,7bv5[8:1]/3bv1[8:1],,,,8/4b>1[8:1],
{16},,,,8,7,{8}6>3[8:1],{16},2,,,{8}1q5[8:1],7q3[8:1],
{16},7,,,{8}4b>1[8:1],4b,{16},,8,7,6,5,{8}4<7[8:1],
{16},,,,8,1,{8}2>5[8:1],{16},2,,,{8}8,4bq7[8:5]/8bq3[8:5],
E
