&title=Tame-Lie-One-Step
&artist=紫雲清夏 (CV. 湊 みや) feat. 東 優太
&first=0.03
&des=Aza
&lv_5=13
&inote_5=(138)
{4},,{16},,,6-8b[8:1],{4},1h[2:1],,{16},,2/4,,,3/5,,,{1}4/6h[2:1],{2}3h[2:1]/5,{16},,4/6,,,5/7,,,{2}6/8h[2:1],1-4[8:1],{4}5,5,{16}5,,,4,5,,3,,{4}2/5,E6,E7,E8,1,1,{16}1,,,8,1,,7,,{4}1h[4:1]/6h[4:1],,2-7[8:1],6-3b[8:1],
{8}2x,1,1,2,3h[4:1]/8,8,7,{4}6-8[8:1],5-1[8:1],4-2[8:1],{8}8,8,,1x/7x,6,5,6h[4:1],5,4,3,{4}2>5[4:1]/4,5<8[4:1],8q4q2[2:1],,{8},5x,6,7,8,1/7,1h[4:1]/7,,{4}8-6[8:1],1-5[8:1],2-4[8:1],{8}6,6,,4/7,5/6,4h[4:1]/7h[4:1],,,4x/5x,3/4,2/5,3h[4:1]/4h[4:1],,,,1xpp3[8:1]/8xqq6[8:1],2/7,,,
{12}7,5,6,4,7,5,6-4[8:1],,,3,3,3,2,2,2,1,8,1,2-4[8:1]/7,,,8-6[8:1],1,1,,,,3-1[8:1],4,4,,,,5,6,4,3,6,7,3,2,7,{2}1-3[8:1]/8-4[8:1],{16}5/6,5/6,,,3/4,3/4,,,{2}7-5[8:1]/8-2[8:1],{16}3/4,3/4,,,5/6,5/6,,,{2}1<6[8:1]/2>5[8:1],{8}4p8[4:1]/8p4[4:1],1x/5x,4-6[8:1]/8-2[8:1],,{2},{4}7<4[8:1],8v5[8:1],1v4[8:1],2>5[8:1],
{1}1<3[4:3],8>6[4:3],{4}2h[4:1],{12}1,2,8,8h[4:1],,1,,7,,{4}1h[4:1],6>3[8:1],2<7[8:1]/6b,2b/6,4x/5x,{16}3x/6x,,,4,{4}5x,3x/6x,{12}5x,5,5,4x,4,4,6hx[8:1],,,{4}3hx[8:1],{8}4x/5x,3,4x/5x,6,4x/5x,3,2x,1/8,{16}7,8,6,1,5-1<7-4b[8:3],2,4,3,{1},{8}1/2,3/8,4/7,5/6,
{8}4-2[8:1],3,5-1[8:1],6,4-2[8:1],3,5pp1[8:3],6,4-2[8:1],3,{4},{8}7/8,1/6,2/5,3/4h[8:3],,1,3h[4:1],1,4h[4:1],1,3h[4:1],1,8,1/7,2/8h[4:1],,7,1/6,2/5,3/4,{8}5-7[8:1],6,4-8[8:1],3,5-7[8:1],6,4-2[8:1],3,5-1[8:1],6,4qq8[8:3],3,5-7[8:1],6,,,1h[4:1]/2,,3,2h[4:1]/4,,5pp1[8:3],,2-5b[8:1],,2,{4},{8}4/8,3/7,2/6,1/5,2-8[8:1]/6,3,7-4[8:1],6,2-8[8:1],3,7-4[8:1],6,2pp6[8:3],3,6,7,7,8h[8:3],,4,2h[4:1],4,8h[4:1],4,2h[4:1],4,5,6qq3[8:3]/3,{2},{8}1,1,2,2,3/4,2h[8:1]/5h[8:1],,5/6,4h[8:1]/7h[8:1],,3/4,{1}2qq4[8:3]/5pp3[8:3],{8}1/8,2/7h[4:1],,5,4h[4:1]/6,,,3/5,{4}3/5-1[8:1],4-8[8:1],5pp1[8:3],{8}4-2b[8:1],4,,
{4},,,{8}6x/E5,2h[4:1]/Ch[8:5],{2},1s5[4:1],7z3[4:1],{4},{8}2hx[16:1],1hx[16:1],{16}D8/E8,,,A6/B6,,,A4/B4,,,D3/E3,,,{4}C,2-5-3[4:1]/8-5-7[4:1],,,{8}1/2,3h[1:1]/8>6[2:1],,,,,,,,4x,1/2,{16},7/8,,,5/6,,,3/4,,,{4}Ch[4:5],{1},
{1}1h[1:1],{2}2h[2:1],3h[2:1],4h[1:1],,5h[2:1],{4}6h[4:1],4,{2}3/5h[1:1],,6h[2:1],7h[2:1],8h[1:1],,{4}1,2/8,3s7[4:1]/7,,5<8[2:1],4,4,4,4>1[2:1],5,6,7,{8}8,8,1,1,2,2,3,3,{16}4,3,5,2,6V42v1b[8:5],1,7,8,{2},,,,
{4}4h[8:1]/6h[8:1],5h[8:1],{16}3h[8:1]/5h[8:1],,,3h[8:1]/5h[8:1],,,3-1v4[4:1]/5-7v4[4:1],,{2},A6/B6/A2/B2/C,{48}A3,D4,A4,D5,A5,D6,{8}A6,1b/7h[8:3],,5,1h[4:1],5,7h[4:1],5,4,3/5,5,4h[8:1]/6,8x,3/5h[8:1],1x,4/6-8[8:1],7,5-1[8:1],4,6-8[8:1],7,5-3[8:1],4,6-2[8:1],7,5qq1[8:3],4,6-8[8:1],7,,,2h[4:1]/4,,5,4/6h[4:1],,8,1,2/8,3-5[8:1]/7-5[8:1],3/7,,,3h[8:1]/5,7,6h[8:1]/4,2,3/4-8[8:1],5,3-1[8:1],2,4-8[8:1],5,3-1[8:1],2,4,5,6,4/7,3,2/5,6,4/7-3[8:1],7,2-6[8:1],2,8qq4[8:3],8,1-3[8:1],1,,,,5x/6x,4,2/4,5,5/7,4,3/4,2h[8:1]/5h[8:1],,5/6,4h[8:1]/7h[8:1],,4/5,3qq5[8:3]/6pp4[8:3],{2},{8},,,1/2,3h[4:1]/8,,4,2/5h[4:1],,,5,4/6h[4:1],,5h[4:1],,4h[8:3],,3,3b,,
4/7,6,2/5,3,4/7,6,2/5,3,7-4[8:1],7,2pp6[8:3],2,7-1[8:1],7,,,2/5,3,4/7,6,2/5,3,4/7,6,4-8[8:1],4,5pp1[8:3],5,2-4[8:1],2,,,1/6,7,3/8,2,1/6,7,3/8,2,1-5[8:1],1,7qq3[8:3],7,2-8[8:1],2,,,1/8,2,1/3,2,1/8,7,6/8,7,1/8,2/7,3/6,4/5,E6/E4,E3/E7,E2/E8,E1,{2}Ch[2:1],{8},{16}6,,,4/5,,,{1}3-6[4:1],{2}Ch[2:1],{8},{16}3,,,4/5,,,{2}6-3[4:1],{4}1s5b[4:1],
