&title=ヒュブリスの頂に聳えるのは
&artist=qfeileadh feat.のあ
&first=1.57
&des=暗夜
&wholebpm=158
&demo_seek=1
&demo_len=1
&des_1=オフセット用
&des_5=人間失格
&lv_1=音
&lv_5=14+
&inote_1=(158){8}
1,,1,,1,,1,,1,,{4}1b,1,1,1,1b,1,1,1,
1b,1,1,1,1b,1,1,1,
1b,1,1,1,1b,1,1,1,
1b,1,1,1,1b,1,1,1,
1b,1,1,1,1b,1,1,1,
1b,1,1,1,1b,1,1,1,,,,E
&inote_5=(158){16}
6,5,4xh[8:1]/7h[8:1],,,1h[8:1]/8h[8:1],,,3h[8:1]/4h[8:1],,,1/6h[8:1],,,{24}5x,4x,3x,2,1,8,7,6,5,
{16}4h[8:1]/8xh[8:1],,,5h[8:1]/6h[8:1],,,5h[8:1]/1h[8:1],,,3h[8:1]/4,,,{24}2,1,8,
{16}7,1,,8/1-5[16:1],,,1,,,,
{48}8/3,4,5,,,,,,,1/6,5,4,,,,,,,{32}27,,,,1,2,3,4,5,6,7,8,1,2,3,4,5,6,7,8,{16}1x/5x,2x/6x,3x/7x,4x/8x,
{4}5x-2[8:1]/1x-6[8:1],1p8[1:1]/5p4[1:1],,,,,,
{16},,6h[4:3],,,7,,,5,,,3,,,1V74[8:3],,,,6>2[4:1],,,,,,,,,,18,,,,2,4,,4,3,5,4,,
{4}3qq8[2:1]/6,6,6,6^8-4^2[2:1],1,1,{16}1x,,,8x,,,2b/7b,,,,6,,57,,4/8-4[8:1],,,,2,,1,,8-4[8:1],,,,7^2-6[16:5],,,,1,,,,,,,
4b/7b,,,25,3,4,52,,74,6,5,47,,27,1,8,27,,,
3xh[4:11],,,,,,,,,,,,,,,,,,,,,,,,,,,,,,,,7xh[4:3],,,,,,,,,,,,,,,,4-7[8:1]/5b,,,3b,4,,1b,,,,
7<3[16:3],,,3q1[16:3],,,2xh[8:5],,,,,,,,,,1-6[16:1],,,3,,,1x-6-8-2[16:5],,,4,,,5,,,,
7h[8:3],,,8,,,1^6[8:1],,,2,1,,3V15[4:1],,,,5,,6,,7-4-8[4:1],,,,4,,3,,,,2,4,,4,3,5,4,6,
6,,12,,6,5,7,,3,,78,,3,4,2,,6,,12,,6,5,7,8,7h[8:1],,5,6,4,5,3,4,2,,17,,2,4,3,,5,,3,4,2,,8,,7b/1-5[8:1],,,2b,1,,4b,,,,
4>8[16:3],,,8^6[8:1],,,5xh[8:5],,,,{32}8x,1x,2x,3x,,,,,,,,,{16}4-8[16:1],,,5,,,4x-8-5-7[16:5],,,2,,,3,,,,,,1,,1h[1:1],,,,
8h[1:0],,8h[1:0],,,,8h[1:0],,,8h[1:0],,,8,1,{12}7b/2x,6,5,4x/1b,2,3,4x/8b,7,6,5x-3-1-7-3[16:7]/8b,7,6,{16}5x/7b,,,,,,,,,,
6,,6h[4:1],,4,,3>7[16:3],,,7p1[16:3],,,5,,,,4-8[8:1],,,,1,2,3<7[16:3],,,7p1[16:3],,,8,,,,8q1[8:3],,,,2h[4:3],,,,,,,,,,
1,,4,3,5,4,6,5,7p4[8:3],,,,,,,,,,3,,3,,2,,8/1<5[16:3],,,5q3[16:3],,,,,,,{24}7,6,5,4,,,
{16}2,1,2,,,7,,,86,,,,34,,25,,,,1,8,2,7,3,6,4,5,3,4,2,5,1,6,8,7,{32}8,1,2,3,4,5,6,7,8,1,2,3,4,5,6,7,8x/4x,,5x/1x,,6x/2x,,7x/3x,,{16}4x/8x,,,,45,46,47,48,,54,53,52,51,,,,,,,,
1b/7b-4[8:1],,,8,7,,3,,1-5[8:1]/2,,,8,1,,7,,6>2[16:3],,,2q8[16:3],,,8<4[16:3],,,,1,,1,,2,,3>7[16:3],,,7V15[16:3],,,5>1[16:3],,,,7,,6,,5pp1[8:3],,,,,,,,,,,,
3,4,2,,1,,8-4[8:1]/7,,,1,8,,2,,3-8[8:1]/4,,,5,3,,6,,7>3[4:1],,,2>6[4:1],,,5^7[8:1],,,,{24}1,2,3,4,,,,,,{16}1/8b-4[8:1],,,3b,8,,2b,,,,{2048}1b-4[1:0]*-4[1:0],{16}5b-8[8:1],,84,,1b/5b,,,,2,3,45,6,7,8,2,36,7,8,2,37,8,1,
2-5[8:1],,,4,2,,6,,,,78,,1/6h[4:1],,,,5-1[8:1],,,4,5,,3,,{24}2,8,2,8,2,8,1b,,,,,,6/7b,,,,5b/4,,,,3b/2,,,,1/8b,,,,2b/7,,,,3/6b,,,,
{16}4b/5,3,2,1,8x/5b,6,7,8,1x/2b,3,4,5,6x/2b-4-6<6^7^8^1^2^3^4[1:1],3,4,5,6x/2b,,,,,,,,,,,,,,,,,,,,,,,,,,,,
18,,,,27,,1,8,1,7,1,8,2,8,1-5[1:0],8,1,,1bV38[2:1]*V72[2:1]/8b,,,,,,,,,,,,,,,,,,
2h[8:23]/6b,,,,,,,,,,,4b,,,,,5b,,5b,,,,,,,,,4b,,,,,,,3b,,,,,7b,,7b,,,,,6b,4,5,4,5,4,7b,4,5,4,5,4,8,4,7,4,6,4,6,5,6,3,4,3,7,5,6,2,4,3,7,6,7,2,3,2,8,6,7,1,3,2,8,6,7,1,3,2,8h[24:41],,,,,,,,,,2,,,3,,,4h[24:17],,,,,,,,,,,,{24}37,26,15,84,,,,,,3b/7b,,3b/7b,,3b/7b,,1b/5b,,1b/5b,,1b-5[16:61]/5b,,{16},,,,,,,,
{48}6h[2:1],,,,,,,,,,,,,,,,,,,,,,,,,,,,,,,,,,,,,,,,,,,,,,,,
3h[2:1],,,,,,,,,,,,,,,,,,,,,,,,,,,,,,,,,,,,,,,,,,,,,,,,
7,6h[48:23],,,,,,,,,,,,,,,,,,,,,,,,,,,,,,,,,,,,,,,,,,,,,,,
2,3,4h[24:11],,,,,,,,,,,,,,,,,,,,,,,,,,,,,,,,,,,,,,,,,,,,,,
{4}8,8,8,8,48,38,28,18,{2048}1-5[45.14#1:0],{32}8-4[45.14#1:0]*-4[45.14#1:0],27,36,4h[32:17]/5h[32:17],,,,,,,,,,,,,,,,,,,,,,,,,1b/8b,,,,,,,,{24}4,5,4,6,5,6,3,4,3,8,1,8,1,8,1,2b/7b,,,,,,
{16}7-4[8:1],,,5,7,,3,,,,21,,8/3h[4:1],,,,4-8[8:1],,,5,4,,6,,{24}7,1,7,1,7,1,8b,,,,,,3/2b,,,,4b/5,,,,6b/7,,,,8/1b,,,,7b/2,,,,6/3b,,,,
{16}5b/4,6,7,8,1x/4b,3,2,1,8x/7b,6,5,4,3x-5-7>7^8^1^2^3^4^5[1:1]/7b-5-3>3^2^1^8^7^6^5[1:1],6,5,4,3x/7b,,,,,,,,,,,,,,,,,,,,,,,,,,,,
18,,,,27,,1,8,1,7,1,8,2,8,1,8,1,7,1/8,,,,,,27,,36,,45,,45,,4-8[8:1]/5-1[8:1],,45,,,,,,2b/7b,,,,
1,2/5,6,7,1,2/6,7,8,2,3,4,5,1,2,3,4,2,36,7,8,2,37,8,1,3,4,3,4,2,5,2,5,1,5,2,6,3,7,4,8,4,38,7,6,4,37,6,5,{24}4xh[1:0],3h[1:0],2h[1:0],1h[1:0],8h[1:0],7h[1:0],{16}6b/1b,,,,
8,7/4,3,2,8,7/3,2,1,7,6,5,4,8,7,6,5,7,63,2,1,7,62,1,8,6,5,6,5,7,4,7,4,8,4,7,3,6,2,5,1,5,61,2,3,5,62,3,4,7,8,7,8,6,,45,,3,4,2,,18,2b/7b,,,
6-1[8:1],,,,2,,3,,4-8[8:1],,,,7,,6,,5<1[4:1],,,8>4[4:1],,,3^6[16:3],,,,8,,1,,2,,2-5[8:1],,,,6,,7,,8-4[8:1],,,,3,,2,,1>5[4:1],,,4<8[4:1],,,7^2[16:3],,,,4,,5,,6,,6-3[8:1],,,,1,,2,,2-7[8:1],,,,5,,6,,6<2[16:3],,,2V84[16:3],,,4>6[16:6],,,,,,,,,,
2h[16:27],,,,,,,,,,,5b,,,,,6b,,6b,,,,,,,,,4b,3,5,4,6,,,
7h[8:1]/8h[8:1],,,6h[8:1]/2h[8:1],,,1h[8:1]/3h[8:1],,,8h[8:1]/6h[8:1],,,4h[8:1]/5h[8:1],,,1h[8:1]/3h[8:1],,,6h[8:1]/7h[8:1],,,34,,12,,78,,56,,34,,,,57,,24,,,18,,,,
{48}1/6,5,4,,,,,,,8/3,4,5,,,,,,,{32}72,,,,8,7,6,5,4,3,2,1,8,7,6,5,4,3,2,1,{16}8x/4x,7x/3x,6x/2x,5x/1x,
{4}4x-7[8:1]/8x-3[8:1],{1}8b/4b-8>6[2:5]*z8[8:6],,,,,E
,
