&title=Fire Dance
&artist=Shirofr/Vivid BAD SQUAD
&first=0.09
&des=9V_A2-6
&lv_5=12+
&inote_5=(140){8},,,,,,,,,,,,,,4h[4:2]/E8,E7,E6,E5,E4,,5-8[8:1],,3,,4-1[8:1],,6,,5h[4:3],,E2,E3,E4,E5,E6,,4-1[8:1],,6,,5-8[8:1],,3-5[8:1],,7b,,
{8}6h[8:1],5,3h[8:1],4,7h[8:1],5,2h[8:1],4,7h[8:1],8,2h[8:1],1,6h[8:1],8,3h[8:1],1,7,7,56,56,45,45,3<5[8:1]/4,,7xpp4b[2:1],,,,Ch[4:1],,,,4/1>4[8:1],5,6<1[8:1],,5,5,,4,5/8<5[8:1],4,3>8[8:1],,4,4,,.5,4/1>4[8:1],,8<5[8:1],,B2/B3,,B7/B6,,
{16}2,4,3,5,4,6,5,7,5>2[8:1],,,,8-4[8:1],,,,1xbh[2:1],,,,E6,,,,
{8}E2,34,E8,56,
{16}2h[8:1],,4,3,5/2-5[8:1],,2,,8-4[8:1],,,,1,,2,,3xh[16:1],B7,,,6xh[16:1],B2,,,4,5,3,6,2,,4/8z4[4:1],,3xh[8:3],,,,,,,,2-6b[8:1],,2,,6xb,,,,47,,6,5,47,,3,,5/2>5[8:1],,,B4/B3,,,6,,47,,6,5,47,,3,,5x/2x>5[8:1],,,C,,,8,,5>2[8:1]/6,,,,6p1[8:1],,,,4>1[8:1],,4,,8,,7,,6x<1[8:1]/1x>4[8:1],,5x,,,,,,7x<4b[8:1]/4x>1b[8:1],,8x,,,,,,
E5,,3,,C,,6,,E1,,2,,C,,7,,3h[8:1],,2,,6h[8:1],,7,,2xv3[8:1]/7xv6[8:1],,C,,,,,,E1,,3,,C,,6,,E5,,2,,C,,7,,3h[8:1],,2,,6h[8:1],,7,,1x-5b[8:1]/8x-4b[8:1],,C,,,,,,2x/7x,,,,C,,E7/E3,,,,,,,,C,,E1,,E5,,E7,,E3,,,,C,,4h[8:1],,
{24}7,6,5,4h[8:1],,,2,,,3h[8:1],,,8,,,7h[8:2],,E6,,E5,,E4,,,7,6,5
,4h[8:1],,,2,,,3h[8:1],,,8,,,
{16}7hb[4:1],,E6f,E5,E4,,,,
{8}2h[4:1]/5,,4,,7h[4:1]/3,,5,,4h[8:1],E7,C,E3,,6,6,57,2,34,6,57,
{16}3,4,3,4,
{24}2,3,4,5,6,7,8x/Cf,,,
{8}2,4,7,6x-1[8:1]/2x-5[8:1],C,6b/2b,,
{8}7-5[8:1],7-1[8:1],7x-3[8:1],79x,7x,
{16},2h[16:3],,,4<1[4:1],,,,1,,2,,3,,4x-2[8:1]*-6[8:1],,,4,,,,,
{12}7,5,6,2,4,3,8,6,7,1,3,2,
{16}7h[8:1],,5,6h[16:3],,,4-1-6[8:2],,6-1[8:1],,A7/A8/D8,,A7/A8/D8,,,,
{8}7-5[8:1],7-1[8:1],7x-3[8:1],7x,7x,
{16},2h[16:3],,,4<1[4:1],,,,1,,2,,3,,4w8[8:1],,,4x,,,,,
{12}2,4,3,7,5,6,1,3,2,8,6,7,
{8}Ch[4:1],,4-1[8:1],4,5-8[8:1],5,2-6[8:1],2,1x-4[8:1]
,8-5[8:1],1,8,
{16}3,4,2,5,1,,37,,8x-5[8:1],,1-4[8:1],,8,,1,,6,5,7,4,8,,26,,3,4,2,4,1-5[8:1],,1,,6-1[8:1],,6,,4>6[4:1],,3xh[4:1],,,,,,4,,5xp1[8:1],,5x,,6b,,6b,,,,7<5[8:1],,7>1[8:1],,7x-3[8:1],,7x,,7x,,2x,2h[16:3],,,4<8[4:1],,,,8xp3q8b[16:8],,1,,2,,3,,,B1/B2,,,,,
{12}1,1,1,7,7,7,3,3,3,5,5,5,
{16}2x,13,,,7x,68,,,1-5[8:1],,28,,1xs5s1b[4:3],,,,,,,,,,,,,,,,C,,,,
