&title=Ring of Fortune
&artist=佐々木恵梨
&first=1.662
&des=尘落南丘
&lv_5=12
&inote_4=
&inote_5=(148)
{8}4h[8:1],2,,,5h[8:1],7,,,3h[8:1],6,,,5h[8:1],4,,,
(158)
{16}2,3,4,,
{8}5,6,7<4[8:1],,1,2-6[8:1],,8,7-4[8:1],,1,2>5[8:1],,
{16}6,,7,,8h[2:1],,6x,5x,4x,3x,2x,,
{4}1,2-5[8:1],2/7-3[8:1],7/1w5[2:1],1b,,
{1},
{16}B6,B5,B4,,,,,,
{8}2,2v5[8:1],,7,7<4[4:1],,,,,
{8}2h[4:1],,4qq1[2:1],,5,6,7,8h[2:1],,,,
{8}3,4,5,6,7-3[8:1]/4h[4:1],,,,,
{8}1,8,7,6<1[8:1],,,3,2>5[8:1],,6,7,8qq5[2:1],,4,3,2,1h[8:3],,,7,2h[4:1]/6h[2:1],,,,4,,
{8}5h[4:1],,1-6[8:1]*-4[8:1],,1,,5,2,6,3,48,2-5[8:1]/6-1[8:1],,26,,,
{4}7h[4:1]/3,5h[4:1],4h[4:1],2q4[4:1],
{8}5,6,7p5[4:1],,4,3,2h[4:1],,6,,74,,
{8}3,2x-5[8:1],,,6,7xv4[8:1],,,2,1x>4[8:1],,,7,8x<5[8:1],,,,
{8}4,26,,5,74,,3,2-6[8:1]/5,,,,
{4}4h[4:1],2h[4:1],7V53[4:1],3V17[4:1],
{8}4h[4:1],,,6v1[4:1]*v3[4:1],,6,,,,
{16}8x,7x,6x,,5,,3,,4,,
{8}6<1[4:1],,1q6[4:1],,3,3h[4:1],,,3>8[4:1],,8p3[4:1],,6h[8:1],,,,
{8}6,,46,6,46,,35,,B5,3x,B7,2x,E6,3x,E8,2x,3,,53,3,53,,64,,B4,6x,B2,7x,E4,6x,E2,
{16}7x,,25,,3,4,3,,5v2[8:1]/7-1[8:1],,,,57,,,,
{16}43,,,,6,5,6,,47,,,,4v7[8:1]/2-8[8:1],,,,42,,,,
{8}6,3,48,37,26,15,4b/8b,,,
{4}E2/E6/Chf[2:1],,,
{8}4,5,6,3b/7bp3[8:1],,7,2,1b-5[8:1]/5b,,,
{8}7V53[4:1],,3V17[4:1],,7<1[4:1],,4h[4:1],,,37,6,2,4h[8:3],8h[4:1],,,,
{8}35,26,17,6/8v3[8:1],17,2b/8b,,64,73,82,1-6[8:1]*-4[8:1],28,1b,,,
{4}2V46[4:1],6V82[4:1],2>8[4:1],5h[4:1],
{16},,2,3,
{8}4h[8:1],,,28,37,46,15,3b-8[8:1]/7b-4[8:1],,,,,
{8}5,4,3,6/2q6[8:1],,2,7,8-4[8:1]/4,,,
{4}2-6[8:1],7-3[8:1],4<7[4:1]*>1[4:1],
{8}4,,,3,4,
{4}5<8[8:1],5b>2[8:1],5b-8[8:1]*-7[8:1],5b-3[8:1]*-2[8:1],5b,
{8},8,7,6,5/1>4[8:1],,1b/6,,2,3h[4:1],,8,7p3[8:1],,7/1w5[4:1],,
{2}1b,
{8}2,6,3,7,4h[4:1]/8h[4:1],,,,
{8}7,3,6,2,1>3[8:1]/5<7[8:1],,,,,4h[8:1]/8h[8:1],,,
{4}1-4[8:1]*-3[8:1]/5,1-7[8:1]*-6[8:1],1w5[8:1],1b,
{8},3h[4:1],,6,,8,7-3[8:1],,1,2-5[8:1],,8,7<4[8:1],,
{16}3,,2,,1h[2:1],,3,4,5,6,7,,
{4}8,7-4[8:1],7/2-6[8:1],2/8>8[1:1],4h[1:1],
{1},,E
