&title=Third Sun
&artist=Ash Astral
&first=0
&des=IcreApte-100
&lv_6=14
&inote_6=(150){1},
{1},
{12}1h[16:1],,,2/8,,,3,4,3,2/5,,,
{12}8h[16:1],,,7,1,7,2-5[8:1]/6-1[8:1],,,2/6,,,
{12}8-5[8:1]/4-1[8:1],,,8/4,,,2,6,2,3/5,,,
{12}4/6,,,3,4,2,6,5,7,1-4[8:1]/8-5[8:1],,,
{12}1/8,,,2/7,,,3,4,3,2>4[8:1]/5<7[8:1],,,
{12}2/5,,,6,5,6,4>2[8:1]/7<5[8:1],,,4/7,,,
{4}1h[2:1]/4,,8h[2:1],,
{8}1,1,8,8,1h[8:3],,
{16}8b,8b,8b,,
{48}1/8,2/7,3/6,4/5,,,,,,,,,
{16}3,4,3,,2-4[8:1],,,7,,,7h[4:1],,
{16},,,,6,5,6,,7-5[8:1],,,2,,,2h[4:1],,
{16},,,,2,3,2,3,2v1[8:1],,,4,,,5h[8:5],,
{16},,1,,,1,,,1,,,,1h[4:1],,5b,5b,
{16}5b,,,,6,5,7,,8-2[8:1],,,3,,,3h[4:1],,
{16},,,,3,4,2,,1-7[8:1],,,6,,,6h[4:1],,
{16},,,,6,7,6,7,6v5[8:1],,,8,,,1h[8:5],,
{16},,5,,,5,,,5,,,,5h[4:1]/1b,1b,1b,1b,
{16}1b,,,,3h[8:1]/7,7,7,,2h[16:1]/6h[16:1],,,8h[16:1]/4h[16:1],,,2h[16:1]/6h[16:1],,
{16},,,,6h[8:1]/2,2,2,,7h[16:1]/3h[16:1],,,1h[16:1]/5h[16:1],,,7h[16:1]/3h[16:1],,
{16},,,,4,3,1,2,8h[8:1],,,4h[8:1],,,6h[8:1],,
{16},,2b,,,6b,,,4b,,,,8/4,8/4,,2/6,
{16}2/6,,,,3/7,3/7,3/7,,1h[16:1]/5h[16:1],,,3h[16:1]/7h[16:1],,,8h[16:1]/4h[16:1],,
{16},,,,6/2,6/2,6/2,,8h[16:1]/4h[16:1],,,6h[16:1]/2h[16:1],,,1h[16:1]/5h[16:1],,
{16},,,,5,6,8,7,1h[8:1],,,5h[8:1],,,3h[8:1],,,,
{48}8b,7,6,5,,,,,,1b,2,3,4,,,,,,8b,7,6,5h[48:21],,,,,,,,,,,,,,,,,,,,,
{48}1>6[16:3],2>7[16:3],3<8[16:3],4h[48:18],,,,,,,,,1,,,,,,,,,,,,4bp3[4:1],,,,,,,,,,,,8b>6[4:1],,,,,,,,,,,,
{4}8,,6bp5[4:1],3b<1[4:1],
{4}3,5,1b/5b,3b<5[8:1]/7b>1[8:1],
{8}3b/7b,,
{12}8,4,8,2/6,,,1,5,1,
{12}3/7,3,3,3,3,3,3/7,7,7,7,7,7,
{12}7/1,1,1,1/5,5,5,5/1,5/1,5/1,5/1,5/1,5/1,
{12}1b/5b,,3`7,,8`4,,6`2,,1`5,,3`7,,
{1}8b/4b,
{48}8<3[16:3],7<2[16:3],6>1[16:3],5h[48:18],,,,,,,,,8,,,,,,,,,,,,
{12}5,5,5,5,5,5,
{12}5/1,1,1,1,1,1,
{48}1h[4:1],,,,,,,,,,,,,2/8,3/7,4/6,5,,,,,,,,
{12}3b/7b,,,2/6,2/6,2/6,
{24}2/6,,,,2/6,3/7,4/8,,,,,,
{12}4b/8b,,,3/7,3/7,3/7,
{24}3/7,,,,3/7,2/6,1/5,,,,,,
{12}1b/5b,,,1/5,1/5,1/5,
{24}1/5,,,,1/5,2/6,3/7,,,,,,
{12}3b/7b,,,1,5,3,7b,,,3b,,,
{12}6b/2b,,,7/3,7/3,7/3,
{24}7/3,,,,7`3,6`2,5`1,,,,,,
{12}5b/1b,,,6/2,6/2,6/2,
{24}6/2,,,,6`2,7`3,8`4,,,,,,
{12}8b/4b,,,8/4,8/4,8/4,
{24}8/4,,,,8`4,7`3,6`2,,,,,,
{12}6b/2b,,,8,4,6,
{48}2b,1b,,,,,,,,,,,6b,5b,,,,,,,,,,,
{12}7b/3b,,,6/2,8/4,6/2,
{24}8/4,,,,8`4,7`3,6`2,,,,,,
{12}8b/4b,,,7/3,1/5,7/3,
{24}1/5,,,,1`5,2`6,3`7,,,,,,
{12}5b/1b,,,5/1,3/7,5/1,
{24}3/7,,,,7`3,8`4,1`5,,,,,,
{24}8,,8,,8,,8,,8,,8,,8,1,8,,8,,8,,8,1,8,,
{12}8b/1b,,,3/7,1/5,3/7,
{24}1/5,,,,1`5,2`6,3`7,,,,,,
{12}1b/5b,,,2/6,8/4,2/6,
{24}8/4,,,,8`4,7`3,6`2,,,,,,
{12}8b/4b,,6`2,,1`5,,3`7,,8`4,,6`2,,
{1}1b/5b,
{4}3b/7b,,,
{32}1/5,2/6,3/7,4/8,5,6,7,8,
{4}1b/5h[2:1],,
{12},,1/5,,3/7,,
{24}8/4,3/7,,,1/5,6/2,,,8/4,3/7,,,
{16}6h[8:1]/2,,,2,3/6h[8:1],,,2,
{12}3/6,,2/7,,1/8,,
{32}1/8,2,3,4,5,6,7,8,
{4}1bV38[4:1],8bV64[4:1]*V24[4:1],,,
{32}8`4,7`3,6`2,5`1,4,3,2,1,
{4}8b/4h[2:1],,
{12},,8/4,,6/2,,
{24}1`5,2`6,,,8`4,7`3,,,1`5,2`6,,,
{16}3h[8:1]/7,,,7,6/3h[8:1],,,7,
{12}6/3,,7/2,,8/1,,
{32}8/1,7,6,5,4,3,2,1,
{4}8bV61[16:3],
{24}4h[4:1],,,,,,,,8,7,6,,3h[4:1],,,,7,6,5,,2h[6:1],,,,
{24}5h[4:1],,,,,,,,1,2,3,,6h[4:1],,,,2,3,4,,7h[6:1],,,,
{24}3h[4:1],,,,,,,,7,6,5,,2h[4:1],,,,6,5,4,,1h[6:1],,,,
{24}4h[4:1],,,,,,,,8,1,2,,5h[4:1],,,,1,2,3,,6h[6:1],,,,
{12}4b,,,,7/5,6,6,6,2/4,3,3,3,8/6,7,7,7,1/3,2,2,2,2/1,1,1,1,
{24}2b/1b,,,,3/8,4,,,7b/8b,,,,1/6,5,,,2,,1,,2h[1:1],,,,
{1},
{48}1,8/2,7/3,6/4,5h[24:30],,,,,,,,
{4},,,
{12},,,,1,5,1,5,3,5,3,5,7,5,7,5,1b,,5b,,
{12}1-5[12:1],7,3,1,
{12}4-8[12:1],6,2,4,1-5[12:1],7,3,1,4-7[12:1],6,2,4,
{12}1,8,1,2/7,7,3/6,3,4/5,5,5b/4b,,,
{24}4/5,3/6,,,1/8,2/7,,,
{12}1p5[12:1],7,3,1,4p8[12:1],6,2,4,
{12}1q5[12:1],7,3,1,4q8[12:1],6,2,4,,1,8,1,
{24}8,,2/7,3/6,,,4/5,3/6,,,2/7,1/8,,,1b/8b,,,,,,,,,,
{12}8-4[12:1],2,6,8,
{12}5-1[12:1],3,7,5,8-4[12:1],2,6,8,5-2[12:1],3,7,5,
{12}8,1,8,7/2,2,6/3,6,5/4,4,
{12}3/6,6,2/7,2,1/8,8,,
{12}8q4[12:1],2,6,8,5q1[12:1],3,7,5,
{12}8p4[12:1],2,6,8,5p1[12:1],3,7,5,
{24}8,7,,,1,2,,,7,6,,,2,3,,,6,5,,,3,4,,,
{12}6b,,3b,,
{12}3-7[12:1],1,5,3,6-2[12:1],8,4,6,3q7[12:1],1,5,3,
{12}6q2[12:1],8,4,6,3p7[12:1],1,5,3,6,6,8,8,
{12},7,2/8,2/8,4/6,4/6,1/7,1/7,
{12}3/5,3/5,3/5,,,
{12}2-7[12:1],8,4,2,4-1[12:1],6,2,4,2-5[12:1],8,4,2,
{12}4-7[12:1],6,2,4,2,2,2,
{24}2,3,4h[4:1],,,,,,8,7,6h[4:1],,,,,,4b,,,,,,
{12}7-2[12:1],1,5,7,5-8[12:1],3,7,5,7-4[12:1],1,5,7,
{12}5-2[12:1],3,7,5,6,6,1,1,
{12},2,7/1,7/1,5/3,5/3,8/2,8/2,
{12}6/4,6/4,6/4,6/4,,{12}6-3[12:1],4,8,6,8-5[12:1],2,6,8,6-1[12:1],4,8,6,
{12}8-3[12:1],2,6,8,7,7,4,
{24}4,,8,7,6h[4:1],,,,,,2,3,4h[4:1],,,,,,
{12}6b,,,,7/5,6,2/4,3,8/5,7,1/4,2,
{12}3,3,3,2b/4b,,5b/7b,,2/4,3,7/5,6,1/4,2,8/5,7,
{12}6,6,6,3,3,3,
{12},,2/4,2/4,,5,,6,,,5/7,5/7,8b/4b,8b/4b,,
{12}7h[8:1],,5h[8:1],,4h[8:1],,2h[8:1],,7h[8:1],,5h[8:1],,
{12}4h[8:1],,2h[8:1],,
{48}1b,8b`2b,7b`3b,6b`4b,5b<5[1:2]*>5[1:2],,,,
{4},,
{1},
{1},
E
