&title=UMMU
&artist=t+pazolite
&first=-0.33
&des=Wangzap
&lv_3=8+
&lv_5=14
&inote_3=(180)
{1},,,
{4}18,2,2,2,18,7,7,7,1-4[2:1],,,,5-8[2:1],,,,35,4,4,4,46,5,5,5,6>3[2:1],,,,
&inote_5=(180)
{1},,,
{16}1x/8x,,7,,7h[8:13],,,,5,,,5,,,6,,,6,,,6,,,,8,,,8,,,8,,16,,2,,4,3,4,,5,,5,4,,4,5,,64,,4,,6,5,6,,4,,4,5,,5,3,4,
{16}3x,,2,,2h[8:13],,,,4,,,4,,,3,,,3,,,3,,,,1,,,1,,,1,,83,,2,,5,4,5,,3,,3,4,,4,3,,25,,6,,8,7,8,7,1v6[8:1],,,,,,,,
{16}3b/4b-8b[8:1],,,,5,,6hbx[8:5],,,,,,,,,,1bx,,,8bx/2bx,,,7bx/3bx>1[8:1],,,,5,,5,,,,
{16}7b/8b-4b[8:1],,,,1,,2hbx[8:5],,,,,,,,,,4bx,,,3bx/5bx,,,4bx/6bx<8[8:1],,,,1,,1,,,,{16}4/5h[4:1],,,,4,,6h[8:3],,4,,,,4,,,,3/7h[8:1],,,6h[8:1],3,,5h[8:3],,3,,,,3,,,,
{16}2/7h[4:1],,,,2,,8qq5[4:1],,2,,,,2,,,,24,,3,,75,,6,,4,5,4,5,4,5,4,5,
{8}3hx[8:1],E8/B8,2hx[8:1],E6/B5,3hx[8:1],E8/B8,2hx[8:1],E6/B5,3hx[8:1],E8/B8,2hx[8:1],E6/B5,1x>2v3[8:1]/3x-5[8:1],1x/3x,,,
{8}6hx[8:1],E2/B1,7hx[8:1],E4/B4,6hx[8:1],E2/B1,7hx[8:1],E4/B4,6hx[8:1],E2/B1,7hx[8:1],E4/B4,8xv6[8:1]/6x-4[8:1],6x/8x,,,
{8}3hx[4:1],B2,1hx[4:1],B8,7hx[4:1],B6,5hx[4:1],B4,3hx[4:1],B6,7hx[4:1],B4,{16}1x-5[8:1],5x,1x,5x,1x,,,,
{16}3,4,3,4,2,1,2,1,3,8,4,7,5x-1[12:1],,,,7b-4[12:1],,,3b-8[12:1],,,6hb[4:1],,,,4,4,5b,,,,
{16}7h[8:1]/2h[8:1],,,,2,6,3,5,1,8,1,8,2,5,3,4,1x,7,5,6,1,8,4,5,2,8,3,4,2-6[8:1],,13,,
{16}2b/8h[4:1],,,,4,5,3,4,2,8,2,8,3,7,4,6,1x,8,8,8,1,2,3,4,1b-6[8:1]b/5b-2[8:1],,,,1b/5b,,,,
{16}3h[8:1]/7h[8:1],,,,7,3,6,4,8,1,8,1,7,4,6,5,8x,2,4,3,8,1,5,4,7,1,6,5,7-3[8:1],,86,,
{16}7b/1h[4:1],,,,5,4,6,5,7,3,6,2,5p8[8:3]b,1p4[16:5],4,8,,,,,,,,,,,1,8,2b/7b,,,,
{16}6h[8:1]/3h[8:1],,,,2,5,3,4,1,7,1,7,2,5,3,6,8x,7,5,6,1,8,4,5,2,1,3,4,3-7[8:1],,25,,
{16}4h[4:1]/3b,,,,2,1,3,8,5,6,5,6,8,7,1,6,{12}2hx[12:1],4hx[12:1],3x,{8}7hx[8:1],5hx[8:1],6bxw2[8:1]b,,6b,,
{16}8h[8:1]/4h[8:1],,,,7,4,6,5,8,2,8,2,7,4,6,3,8x,3,4,3,8,3,4,3,7,3,4,3,7,3,4,3,8x,8,7,7,6,6,5,5,4,4,3,3,2,2,1,1,8b<1[2:1],,,,,,,,,,,,C1f,,,,
{8}7h[2:1]/4,5,6,5,4h[2:1],6,5,6,8h[8:7],7,6,5,{24}E5,B4,B3,{8}E3,1x,1x,
{16}6hx[8:1],,4,4,,7,5,6,4h[8:1],,6,5,7h[8:1],,4,,6x,5,7,4,6h[8:1],,5,5,7,,5,6,4,6,4,5,
{16}3V17[4:1]b,,,5,3x,,6-8-5-1[2:1],,,,,,1,,1,,2,,2,,3,4,3,4,2,,2h[4:1],,{24}A3,A4,A5,{8}A6,
{16}7hx[8:1],,1,1,,6,8,7,1h[8:1],,7,7,1,8,2,7,1b<6[8:1]*>4[8:1],,,,1bw5[8:1]b,,,,{24}1b,B6/B5/B4,,,,,7b/3b,,,,,,
{8}6h[8:1]/5,4,6h[8:1]/5,3,5h[8:1]/4,3,5h[8:1]/4,2,3h[8:1]/4,5,3h[8:1]/4,6,{24}E6,B5,B4,{8}E4,1b,,
{16}3hx[8:1],,5,5,,2,4,3,5h[8:1],,3,4,2h[8:1],,5,,3x,4,2,5,3h[8:1],,4,4,2,,4,3,{12}5b,5b,5b,
{8}1,1,12,2,23,3,34,4,45,5,56,6,78,78,{24}A6,A5,A4,{8}A3,
{24}2b,1,2,1,2,1,3,4,5,8,7,6,3b,4,3,4,3,4,2,1,8,5,6,7,{8}3b-8b[8:1],,3b/5b-2b[8:1],,5b/7b-4b[8:1],,7b/1b<6b[8:1],,
{16}1b/3hx[1:2],,,,,,B1,B2,,B8,C1,,E7,,E6,,,,,,,,,,,,,,,,,,
{16}6hx[1:2],,,,,,B8,B7,,B1,C8,,E3,,E4,,,,,,,,,,,,,,,,,,
{16}3hx[1:2],,,,,,B1,B2,,B8,C1,,E7,,E6,,2xv1-7[8:3],,,,,,,,,,,,,,,,
{16}6hx[4:7],,,,,,B8,B7,,B1,C8,,E3,,E4,,7x-5-8-2[8:3],,,,,,,,,,,,,,,,
{8}7h[8:1]/8h[8:1],,1h[8:1]/8h[8:1],,1-5[8:1]/2,,6x,,2h[8:1]/1h[8:1],,8h[8:1]/1h[8:1],,8-4[8:1]/7,,3x,,
{8}7h[8:1]/1h[8:1],,2h[8:1]/8h[8:1],,1-5[8:1]/3,,6x,,2h[8:1]/8h[8:1],,7h[8:1]/1h[8:1],,1x-4b[8:1]/5x-8[8:1],4x/8x,1b/5b,,
{16}6hx[8:1],,5,5,,7,8,,3hx[8:1],,4,4,,2,1,,7hx[8:1],,8,8,,6,5,,2hx[8:1],,1,1,,3,4,,
{16}1,8,2,7,3,6,4,5,{32}4,3,2,1,8,7,6,5,4x/8x,,,,,,,,{16}2b/3,2/3b,,7b/6,7/6b,,8b/1b,,7b<6-4[8:1]/2b>3-5[8:1],,,,A7/A2f,,,,
{8}8>3[8:1]/1,7,86,5,6/4-8[8:1],8-6[8:1],43,2,{16}1q5[8:1],,,8,1,,7,,{8}6q2[8:1],2<8[8:1],6,3,
{8}4-1[8:1],5,64,7,8p4[8:1]/6,4-6[8:1],38,2,{16}1<6[8:1],,,2,1,,3,,4V62[4:1],,6,,4,,1,,
{8}8v3[8:1],7,86,5,7-4[8:1],4<6[8:1],7,3,{16}2-5[8:1],,,8,2,,7,,6-1[8:1],,1-7[8:1],,6,,2,,
{8}3<6[8:1],2,31,8,7,86,51,42,1b>4[8:1]/5b<8b[8:1],,1b-5[8:1]/5b-1b[8:1],,1b/5b,,7b/3b,,
{16}6/5x,,7,,6/5x,,8,,6/5x,,7,5,6x,,8,,3x,4,3,2,3h[8:1],,1,2h[8:1],,8,1h[8:1],,7,8,7,,
{16}3/4x,,2,,3/4x,,1,,3/4x,,2,4,3x,,1,,6,5,6,5,7,8,7,8,6-1[8:1],5,7,4,6b,,,,
{16}43,,2,,65,,7,,43,,6,5,8,,43,,6x,5,6,7,6h[8:1],,8,7h[8:1],,8,1,2,43,5,6,7,
{16}2,1,3,8,4,7,5,6,{32}2b,3,4,5,7b,6,5,4,1b,2,3,4,8b,7,6,5,4hx[8:1]/2b,1x,8x,,,,5hx[8:1]/7b,8x,1x,,,,2bx/7bx,3x/6x,4x/5x,,,,,,1,,5,,3b/7b,,
