&title=Danza Aestas
&artist=Feryquitous
&first=-0.01
&des=Danza Aestas
&lv_5=14
&inote_4=(150)
{1},{4},,,{16},,{128}5>6[8:13],,,,,,,4h[128:233],{16},{1}6b,,3bqq4[2:1]/5h[4:3],
{12}46,7,5,46,7,5,{4}4-8[10:1]/6-8[10:1],46,
{16}5b/1b,,2h[16:3],4,,4,,35,,2,4,3,5h[8:1],,4,,
62,,3h[16:3],5,,5,,46,,3,5,4,6h[8:1],,5,,
73,,4h[16:3],6,,6,,57,,4,6,5,7h[8:1],,6,,
84,,7,5,,5,6,,2-6[10:1]*-6[10:1],4,,4,,,,,
8b/4b,,6,5-7[10:1],,5-3[10:1],,5h[8:1],,,,1,2,1,2,,
73,,5,4-6[10:1],,4-2[10:1],,4h[8:1],,,,8,1,8,1,,
62,,4,3-5[10:1],,3-1[10:1],,3h[8:1],,,,7,8,7,8,,
1h[8:1]/5h[8:1],,,2h[8:1]/6h[8:1],,,3h[8:1]/7h[8:1],,,4h[8:1]/8h[8:1],,,37,,26,,
1b/5b,,2,4,3,5h[8:1],,4,6,3h[8:1],,5h[16:3],4,,4,,
26,,3,5,4,6h[8:1],,5,7,4h[8:1],,7,5,6,4,5,
3,,2,4,3,5h[8:1],,4,6,3h[8:1],,5h[16:3],4,,4,,
26,,1,7,2,6,3,5,2-6[10:1]*-6[10:1],6,3,5,,,,,
8b-6[10:1]/4b,,3,3,8-4[10:1],2,,2,8-6[10:1],1,,1,8,,2,,
1-3[10:1]/5,,6,6,1-5[10:1],7,,7,1,8,,8,4,5,3,6,
2,1,3,8,5,6,4,5,3,7,1,8,3,5,2,6,
{12},5b/3,6b/2,,5/3b,6/2b,{2}7/1bw5[10:1],
{8}7b/2b,,3h[16:1],4h[16:1],5h[16:1],4h[16:1],3h[16:1],2h[16:1],
{16}4,3,,2h[8:1]/5h[8:1],,,25,,6,4,7h[16:3],3h[8:1],,,37,,
64,,,6h[16:3],,,5,,7b-5[10:1]/4h[4:1],,,,7,,,,3,4,,4h[16:3],,,3,,25,,3,4,3,4,3,,
{8}72,,6h[16:1],5h[16:1],4h[16:1],5h[16:1],6h[16:1],7h[16:1],
{16}5,6,,7h[8:1]/4h[8:1],,,74,,3,5,2h[16:3],6h[8:1],,,62,,
3,4,5,3,4,5,3,4,5b-3[10:1]*-7[10:1],,,,5,,,,
7,5,6,4,,2,4,3,5-1[8:1]*v8[8:1],4,6,3,,,,,
{16}7h[8:1]/4b,,5-3[10:1],6,,6,5,,7-5[10:1],8,,8,7,,8,,
7h[8:1],,5-3[10:1],6,,6,5,,7,8,6,1,7,8,6,,
2h[8:1],,4-6[10:1],3,,3,4,,2-4[10:1],1,,1,2-6[10:1]*-6[10:1],,1,,
2b/8b,,7,7h[8:1],,8,8h[8:1],,1,1h[8:1],,2,2h[8:1],,8,,
1b/7,,4,5,2b,,64,,3b,5,,6,4b,,27,,
5b/4,,8,1,6b,,28,,7b,1,,2,8b,,17,,
8b/2,,5,4,7b,,35,,6b,4,,3,5b,,72,,
45,,6b/3b,,,2b/4b,,,5b/6b,,,4b/8b,,,1b/7b,,
{4}6h[8:2]/2b>4[10:1],2,5h[8:2]/1>3[10:1],1,
2/4<6[10:1],34,7/4<6[10:1],46,
&inote_5=(150)
{1},{4},,,{16},,{128}5,,,,,,,4h[128:233],{16},{1}6b,,3b/5h[4:3],
{12}46,7,5,46,7,5,{4}4-8[8:1]/6-8[8:1],46,
{16}5b/1b,,2h[16:3],4,,4,,35,,2,4,3,5h[8:1],,4,,
62,,3h[16:3],5,,5,,46,,3,5,4,6h[8:1],,5,,
73,,4h[16:3],6,,6,,57,,4,6,5,7h[8:1],,6,,
84,,7,5,,5,6,,2-6[8:1]*-6[8:1],4,,4,,,,,
8b/4b,,6,5-7[32:3],,5-3[32:3],,5h[8:1],,,,1,2,1,2,,
73,,5,4-6[32:3],,4-2[32:3],,4h[8:1],,,,8,1,8,1,,
62,,4,3-5[32:3],,3-1[32:3],,3h[8:1],,,,7,8,7,8,,
1h[8:1]/5h[8:1],,,2h[8:1]/6h[8:1],,,3h[8:1]/7h[8:1],,,4h[8:1]/8h[8:1],,,37,,26,,
1b/5b,,2,4,3,5h[8:1],,4,6,3h[8:1],,5h[16:3],4,,4,,
26,,3,5,4,6h[8:1],,5,7,4h[8:1],,7,5,6,4,5,
3,,2,4,3,5h[8:1],,4,6,3h[8:1],,5h[16:3],4,,4,,
2/6,,1,7,2,6,3,5,2-6[8:1]*-6[8:1],6,3,5,,,,,
8b-6[32:3]/4b,,3,3,8-4[8:1],2,,2,8-6[32:3],1,,1,8,,2,,
1-3[32:3]/5,,6,6,1-5[8:1],7,,7,1,8,,8,4,5,3,6,
2,1,3,7,5,6,1,8,3,4,2,7,5,6,4,8,
{12},5b/3,6b/2,,5/3b,6/2b,{2}7/1bw5[8:1],
{8}7b/2b,,3h[16:1],4h[16:1],5h[16:1],4h[16:1],3h[16:1],2h[16:1],
{16}5,3,,2h[8:1]/6h[8:1],,,26,,6,4,7h[16:3],3h[8:1],,,37,,
64,,,6h[16:3],,,5,,7b-5[32:3]/4h[4:1],,,,7,,,,3,4,,4h[16:3],,,3,,25,,3,4,3,4,3,,
{8}72,,6h[16:1],5h[16:1],4h[16:1],5h[16:1],6h[16:1],7h[16:1],
{16}4,6,,7h[8:1]/3h[8:1],,,73,,3,5,2h[16:3],6h[8:1],,,62,,
3,45,6,3,45,6,3,45,6b-8[8:1]*-1[8:1],,,,6,,,,
3,5,3,5,,6,4,6,4v7[8:1]*v1[8:1],,,,,,,,
{16}2h[8:1]/6b,,4-6[32:3],3,,3,4,,1-3[32:3],8,,8,1,,7,,
2h[8:1],,4-6[32:3],3,,3,4,,1,8,2-4[32:3],7,1,8,2,,
7h[8:1],,5-3[32:3],6,,6,5,,8-6[32:3],1,,1,8-4[8:1],,2,,
8b/1b,,2,2h[8:1],,1,1h[8:1],,8,8h[8:1],,7,7h[8:1],,1,,
8b/2,,5,4,7b,,35,,6b,4,,3,5b,,72,,
4b/5,,1,8,3b,,71,,2b,8,,7,1b,,82,,
1b/7,,4,5,2b,,64,,3b,5,,6,4b,,27,,
54,,6b/3b,,,2b/4b,,,5b/6b,,,4b/8b,,,1b/7b,,
{4}6h[4:3]/2b,5,5,5-3[32:3],75,2/5-3[32:3],75,25,
3h[4:5]/4,1,4,1-5[8:1],1b,1w5[8:1],1,73,
{4}4b/6b,53,46,5-3[32:3]/3,75,2/5-3[32:3],75,25,
34,17,65,2-6[8:1]/8h[4:1],{16}2b,,,8b,,,1b/7b,,{4}2h[4:1]/6b,3b>4[2:1],5b,,,,
7h[16:11],{8},3h[16:5],,,7-3[8:1]/3,73,
{16}7b/3b,,,1h[16:9],,,5h[8:3],,{2},
{12}53,2,4,53,2,4,{4}5-1[8:1]/3-1[8:1],5/3q5[16:9],
8b,,,{128}4,5,,,{64},,,,,,{8},
2b/7b,{16}3,5,,4h[16:1]/6b>3[8:1],,5h[16:1]/7b,,8b,,1-5[200#8:1],8,7,16,,
7,7,3,3,1,1,2,2,4,4,5,5,7,7,8,,2-6[8:1]/6,,{24}7,6,5,
{8}2,7-3[8:1],{24}2,3,4,{8}7,1h[16:1],8h[16:1]/2h[16:1],
7bqq8[8:3]/3bqq4[8:3],,,,,,8,1,
7b/2b,{16}6,4,,5h[16:1]/3b<6[8:1],,4h[16:1]/2b,,1b,,8-4[200#8:1],1,2,83,,
2,2,6,6,8,8,7,7,5,5,4,4,2,2,1,,73,,6,4,5,3h[8:1],,
1,2-6[8:1],8,3,7,2,,8,,1b/7bV58[200#4:1],,,7h[16:5],,,,,
2bV41[200#4:1],,,2h[16:5],,,,,
8b,{8}8,1/7-4[8:1],3-8[8:1]/5,17,3,6,27,{16}1,
1h[8:1],,{32}8,7,{8}2h[8:1],{32}7,6,{8}{8}3h[8:1],{32}6,5,{8}4,
{16}2h[16:1],1h[16:1],3h[16:1],8h[16:1],4h[16:1],
7,7,5h[16:1],6h[16:1],1h[16:1],8h[16:1],3h[16:1],4h[16:1],
2,2,6h[16:1],5h[16:1],8h[16:1],1h[16:1],4h[16:1],3h[16:1],
{8}5b<5[8:3]*>5[8:3],,,,,,37,37,
{16}1b,{8}1,8/2-5[8:1],6-1[8:1]/4,82,6,3,72,{16}8,
8h[8:1],,{32}1,2,{8}7h[8:1],{32}2,3,{8}{8}6h[8:1],{32}3,4,{8}5,
{16}7h[16:1],8h[16:1],6h[16:1],1h[16:1],5h[16:1],
2,2,4h[16:1],3h[16:1],8h[16:1],1h[16:1],6h[16:1],5h[16:1],
7,7,3h[16:1],4h[16:1],1h[16:1],8h[16:1],5h[16:1],6h[16:1],
4b-8[200#8:1],,,2b>1[200#8:3],,,7h[8:3],,,,,,{32}2,3,4,5,{8},
1b/8b,{16},2h[16:3],,,3h[16:3],,,4h[16:3],,,5,,,,36,
,7,5h[8:1],,6,4h[8:1],,5,3h[8:1],,4,4,,,,
26,,3,5,4,,26,,3,5,4,,26,,26,,
7,3,6,4,5,,7,3,6,4,5,,73,73,73,,
2h[16:1],4h[16:1],3h[16:1],6h[16:1],5h[16:1],7h[16:1],
2h[16:1],4h[16:1],3h[16:1],6h[16:1],5h[16:1],7h[16:1],1,1,1,1,
7h[16:1],5h[16:1],6h[16:1],3h[16:1],4h[16:1],2h[16:1],
7h[16:1],5h[16:1],6h[16:1],3h[16:1],4h[16:1],2h[16:1],8,8,8,8,
2h[16:1],4h[16:1],3h[16:1],7h[16:1],5,5,
8h[16:1],4h[16:1],6h[16:1],2h[16:1],5,5,1,1,1,1,
7h[16:1],5h[16:1],6h[16:1],2h[16:1],4,4,
1h[16:1],5h[16:1],3h[16:1],7h[16:1],4,4,84,84,84,84,
{4}8w4[8:1]/4,8b,
