&title=mimicry
&artist=鎖那
&first=-1.15
&des=
&des_5=鎖這
&lv_5=13+
&inote_5=(118){4},{24},,,,,,,,,,,,3x/6xh[12:1],4x,{6}5xh[3:1],
{12},,,{4}B4/B7,{24},,,,,,6x/3xh[12:1],5x,{6}4xh[3:1],
{12},,,{4}B5/B2,{24},,,,,,2x/6xh[12:1],3x,{6}4xh[3:1],
{12},,,{4}B3/B7,{24},,,,,,7x/3xh[12:1],6x,{6}5xh[3:1],
{12},,,{4}B6/B2,{24},,,,,,2x/6x,3x/7x,{6}4xh[3:1]/8xh[3:1],
{12},,,{4}B3/B7,{24},,,,,,7x/3x,6x/2x,{6}5xh[3:1]/1xh[3:1],
{12},,,{4}B6/B2,{24},,,,,,2x/7x,3x/6x,{6}4xh[3:1]/5xh[3:1],
{12},,,{4}B6/B3,{2}5bx/4xv3-5-2-4[4:3]*v3-5-2-4[4:3],
{12},,,,,,,,6,5/7h[6:1],5,5,
{6}4/6h[6:1],{12}3,3/5h[6:1],,2,{6}2/4h[6:1],{12}3,4/2h[6:1],4,4,
{6}5/3h[6:1],{12}6,6/4h[6:1],,7,{6}7/5,{12}3/4,4h/3h,,6/5,
{6}5h/6h,{12}3/1,1h/3h,,6/8,{6}8h/6h,{12}2/4,4h/3h,,7/5,
{6}5h/6h,{12}5/4,6/3,,5/4,3/6-1[12:1],5,4,6/3-8[12:1],,4,
{6}3/6-1[12:1],{12}5,6/3-8[12:1],,4,{6}3/6-1[12:1],{12}5,6/4-1[12:1],,5,
{6}4/7-3[12:1],{12}8,7/2-5[12:1],,1,{6}2/6-2[12:1],{12}7,2>5v3[4:1]/6<1v7[4:1],,,{2}6/2,
{6}4/6pp8[6:1],6xh[12:1]/4xh[12:1],{12},2pp4[6:1],
,,{6}7h[12:1]/2-7[12:1],{12},2/6,,,6,7/5h[6:1],6,6,
{6}3/7h[6:1],{12}5,4/3h[6:1],,5,{6}3/6h[6:1],{12}4,7/3h[6:1],5,5,
{6}2/4h[6:1],{12}3,5/2h[6:1],,6,{6}1h[6:1]/7h[12:1],{12}5,5/1-5[12:1],,8,
{6}8-4[12:1],{12}7,7-3[12:1],,6,{6}6-2[12:1],{12}5,5,,4xqq1>4[24:11],
{6}7x,4/1,{12},6x,,,,2-5[12:1]/7-4[12:1],,7/2,
{6}2-8[12:1]/7-1[12:1],{12}7/2,2q4[3:1]/7p5[3:1],,7/2,{2}2/7,
{6}2>5[12:1],{12}6,2/6<1[12:1],,6,{2}6/3<2b[4:3],
{12},,,B5,,B4,,,,5pp4[2:1],,3qq4[3:1],
{6}5,3,{12},,,7,3,4/6q2[4:1],,4,
{4}6/4,{12}3v6[4:1],,5,{4}3/5,{12}8p4[4:1],,5,
{4}8/5,{12}1-5[4:1],,4,{4}1/4,6qq3[2:1],
{12}2/6,,,,,2,{4}1>4[12:1],{32}5x,6x,7x,8xh[32:5],,,,,,,,,,,,,7bx/3,
6,5,4,3,2,1,8,{12}7/3b,3,3,6/4V28b[4:1],,8,
{6}8V64-2[8:3],{12}4,4,,8,{6}8bV64b[4:1],{12}8,8/4V28-6[8:3],,8,
{6}8,{12}4,4,,3,7b/2-4[12:1],6/3,6/3,2/6-8b[12:1],,6,
{6}6/5-1b[12:1],{12}3,5/3-8[12:1],,3,{6}3/7<4b[12:1],{12}7,7/1>5[12:1],,,{4}1/7h[6:1],
{32}6x/2,5x,4x,3x,2x,1x,8x,7x,2x/6xv7-5-8[12:5],3x,4x,5x,6x,7x,8x,1x,{4}6x/2xh[8:1],
1-3[16:1],{64}1,B8,C,B4,{16}A4,,,{4}7/2v1-3-8[12:5],6h[8:1],
7-5[16:1],{64}7,B8,C,B4,{16}A4,{48},,{12}3x,{6}2qq1[4:1],{12}8,1x>5[6:1],,7,
{4}6-8[16:1],{64}6xv3[12:1],B5,C,B1,{16}A1,,,{4}6/1-5[12:1],4/1,
3-8b[12:1]/7-3b[12:1],3/7,{12}8x/3xv2-4-1[12:5],1x/4x,2x/5x,3x/6xh[8:1],,,{4}8-6[16:1],
{64}8,B1,C,B5,{16}A5,{48},,,,,,{6}4/7v8-6-1[12:5],{12}4,3,,3,
{4}2-4[16:1],{64}2,B1,C,B5,{16}A5,{48},,,,,,{6}3/7v2[12:1],{12}2,2<5[6:1],{16},,{64},,{96},{64}4-2[16:1],
,,,,,,,,,,,,,,,,B5,C,B1,{16}A1,,,{4}2/8-5[8:1],1-4[8:1],
8-5[8:1],2h[4:1],B7/E8,{12}6/5h[12:1],7,7,
3/4h[12:1],2,2,6/5h[12:1],7,7,3/4h[12:1],2,2,6h[6:1]/5h[12:1],,,{4}4h[12:1]/3h[6:1],
6h[6:1]/5h[12:1],4h[12:1]/3h[6:1],{12}6/5h[12:1],7,8,
3/4h[12:1],2,1,6/5h[12:1],7,8,3/4h[12:1],2,1,6h[6:1]/5h[12:1],,,{4}4h[12:1]/3h[6:1],
5h[12:1]/7h[6:1],2h[6:1]/4h[12:1],{12}8/4xh[12:1],7,6,
1/5xh[12:1],2,3,8/4xh[12:1],7,6,1/5xh[12:1],2,3,5xh[12:1]/4xh[12:1],,,{4}6h[12:1]/3h[12:1],
5h[12:1]/4h[12:1],6h[12:1]/3h[12:1],{12}7/4h[6:1],5,5xh[6:1],
2,4,4xh[6:1],7,5,5xh[4:1],2,4,4x,3x/6xh[4:1],,4,
{6}4,{12}3,3/7h[6:1],,3,8-5[12:1]/4-1[12:1],8/4,7/3,4b/8b,,,,,,,,,,,,{4}4/3,
5/6,{12}4/3,,3/6,5/4,4/5,5/4,6h[12:1]/3-8[12:1],,4,
{6}3/5-1[12:1],{12}6,5/4-8[12:1],,3,{6}4/6-2[12:1],{12}7,6/4-8[12:1],,3,
{6}4/7-3[12:1],{12}6,7-4[12:1]/1-4[12:1],,8,{4}7-2[12:1],{12}3/7-4[12:1],,4xh[12:1],
{8}7-2[12:1],3x,{4}4xh[6:1]/7-4[12:1],{6}7/2-7[12:1],{12}1,6h[4:1]/2-5[12:1],,,{6}2-7[12:1],
{12}7,6h[12:1]/2-5[12:1],,5,{6}2/6h[12:1],7-4<6-2<1[2:1],{12},3,
{6}2,{12}2,3,,3x,{6}4xqq1b[2:1]/8xqq5b[2:1],{12}8/4,4/8,,,,,,,,2/6,
3h,7h,3h,4/8-2[12:1],,3,
{4}B2,{12}4/1-7[12:1],,5,{4}B6,{12}4/7>1[12:1],,3,
{4}B2,{12}4/1<7[12:1],,5,{4}B6,{12}3/7-2[12:1],,4,
{4}5,{12}5/1-5[12:1],,4,{4}5pp8[3:1],{32}4x,3x,2x,1xh[32:9],,,,,,,,,,,,,2bx/6,
3,4,5,6,7,8,1,{12}2/6b,6,6,6/4v1[12:1],,6,
{6}7-2[12:1],{12}2x,3v6[12:1],,1x,{6}8-5[12:1],{12}5x,4p8[12:1],,6x,
{6}7-3[12:1],{12}1x,2h[12:1],,,8-6[12:1]/1v6[12:1],5/4,5/4,8v3[12:1]/1-3[12:1],,,{4}8<5[12:1]/1p5[12:1],
8q4[12:1]/1>4[12:1],1/8,{12}8/1,7/2,6/3,
{4}5h[12:1]/4h[12:1],{12}8/7,1/6,2/5,{32}4x,3x,2x,1x,8x,7x,6x,5x,{4}4bx-8[8:1],
8,{48}7bx/1bx>4qq2[384:95],6/2,5/3,4qq2b[384:71],{4},{16},,{24},{4}5-1[8:1],
1,{48}8bx/2bx>5qq3[384:95],3/7,4/6,5xqq3b[384:71],{4},{16},,{24},{4}8-4[8:1],
4,{48}3bx/5bx<8qq6[384:95],2/6,1/7,8xqq6b[384:71],{4},{16},,{24},{4}1-5[8:1],
5,{48}4bx/6bx,7/3,8/2,1x,,,,,,,,,{12}8/2,3/7,3/7,6/4h[4:1],,,{4}B4,
{48}3bx/5bx,2/6,1/7,8x,,,,,,,,,{6}6/2,{12}4/8,4/8h[4:1],,,{4}B8,
{48}1bx/7bx,6/2,5/3,4x,,,,,,,,,{6}3/7,{12}5/1,1/5h[4:1],,,{4}B5,
{48}6bx/4bx,7/3,8/2,1x,,,,,,,,,{6}7/2,{12}6bxh[24:5],2xh[4:1],,,{4}7bxh[4:1],
3xh[6:1],8bv5b[12:1],{12}3bx/8xv3[12:1],2,1,
5bx/8xv5b[12:1],6,7,3bx/8xv3[12:1],2,1,5bx/8xv5b[12:1],6,7,3bx/8xv3[12:1],2,1,
5bx/8x,6,7,8bxh[12:1]/3xh[6:1],,,{4}4xh[6:1]/1bxv6b[12:1],{12}4bx/1xv4[12:1],3,2,
6bx/1xv6b[12:1],7,8,4bx/1xv4[12:1],3,2,6bx/1xv6b[12:1],7,8,4bx/1xv4[12:1],3,2,
6bx/1x,7,8,3xh[6:1]/1bxh[12:1],,,{4}1xh[6:1]/6bxh[12:1],{48}6/E2,B2,B3,E4,{12}7,8,
{48}3/E8,B7,B6,E6,{12}2,1,{48}6/E2,B2,B3,E4,{12}7,8,{48}3/E8,B7,B6,E6,{12}2,1,{48}6/E2,B2,B3,E4,{12}7,8,
{48}3/E8,B7,B6,E6,{12}2,1,6bxh[6:1]/8xh[12:1],,,{4}3xh[6:1]/8bxh[12:1],{48}3/E8,B7,B6,E6,{12}2,1,
{48}6/E2,B2,B3,E4,{12}7,8,{48}3/E8,B7,B6,E6,{12}2,1,{48}6/E2,B2,B3,E4,{12}7,8,3xh[12:1]/1xh[12:1],,,{4}6h[6:1]/8h[12:1],
5h[6:1]/4h[8:1],1b,5,
4,5,4,5,
4,5,4,5,
2/B4,4/5,7/B5,5/4,
2/B4,{12}4/5,,7,{6}B5/7-1[12:1],{12}3,7/3-1[12:1],,4,
{6}3/6-1[12:1],{12}5,6/4-1[12:1],,5,{6}4/6-8[12:1],{12}5,6/4-2[12:1],,5,
{6}4/6h[12:1],{24}5x,4x,{4}6h[6:1],3/5,{12}5/6,,5/7,
{6}5/7,{12}5/4pp6[6:1],5/4,,5,,,5xh[12:1],4xh[6:1],,3h[4:1],
,,4h[12:1],6xh[6:1],,5xh[3:1],,4xh[6:1],
E
