&title=天空カフェテリア
&artist=Petit Rabbit's
&first=0.05
&des=Rotifera
&lv_6=13
&inote_6=(154){4},{8},,,,,,,,,,3/6,
3/6,,2h[4:1],
,4,5>2[4:1],6,{2}7h[4:1],
{8}7-4[8:1],,,1-5[8:1],,,,7h[4:1],
,5,4<7[4:1],3,{2}2h[4:1],
{8}2-5[8:1],,,8-4[8:1],,,,,{4}5/2b>5[8:1],
{8}8,7b<4[8:1],,2v4[4:1]*<7[4:1],,2b,
{16},,,,,,,,2h[16:3],,,3h[16:3],,,{8}4,
{4}5q2[4:1],2>5[4:1],{8}5pp5[4:1],,,1h[4:1],
,,1b,1b,{4}2b,4/5,
{8}7<4[8:1],8,7,1,7<4[8:1],1,7,2,
{4}3pp4[4:1],4pp1[16:5],7,8,
7V52[4:1],2V47[4:1],{8}1,1,,2<7[8:1],
,2,,5-8[8:1],{4}5,1b,
{8}2>5[8:1],1,2,8,2>5[8:1],8,2,7,
{4}6-2[8:1],4>1[8:1]*<7[8:1],4,8,
1h[8:1]/2h[8:1],7h[8:1]/8h[8:1],{8}4/5,6/3,,8/1,
,3/6,,4qq4[4:1]/5pp5[4:1],{2}5/4,
{8},6,6,5,7/4,7/4,,3<6[8:1],
,7pp2[8:3],{4}7,4,4>8[4:1],
8<4[4:1],4V28[4:1],8V64[4:1],4p8[4:1],
8p4[4:1],4>8[4:1],8<4[4:1],4,
{8},8h[4:1],,4,1/3,1/3,,8-5[8:1],
,1,,3>8[8:1]/4<7[8:1],{2}4/3,
{4}3h[8:1]/7h[8:1],5h[8:1]/1h[8:1],{8}2,4,5,7,
,8/1,,2>4[8:1]/7<5[8:1],{2}7/2,
{8}1,2,3<6[8:1],2,{4}1h[8:1],{8}8,7,
{4}6>3[8:1],6/8,{8}1,1-5[8:1],,1b/7,
,6,5/7,6,5/4,3>6[4:1],,6<3[4:1],
,5h[4:1],,,5,4,7,2,
{4}6<1[8:1],4/6,3>8[8:1],5/3,
5<8[8:1],5/4>1[8:1],4/5,{8}6,5,
7/4,{16}6,5,{8}6,3,5/2,4-1[8:1]*>1[8:1],,4<7[8:1]*-7[8:1],
,,,2,4,5,7qq4[4:3],7,
8,8,1,1,2,2,3qq8[4:3],3,
4,4,5,5,6,6,{4}7V52[4:1],
2V47[4:1],1h[8:1],{8}1,1,8/1,2/7,
,4b/5b,{4}5b/4b,{8}2/7,4/5>1[8:1],,5b/7b,
,6,4,5,2-8[8:1],3,7qq3[16:7],6,
1h[4:1],,,8,,1<5[8:1],2,1/3,
,3,5,4,7-1[8:1],6,2pp6[16:7],3,
8h[4:1],,,1<6[8:1],,4b,{4}4b-1[8:1],
4/5,{8}6,7-2[8:1],,7/3-6[8:1],,3/8-5[8:1],
,4/8,{4}4p7[4:1],7<4[4:1],4qq4[4:1],
8<5[8:1],8,4>1[8:1],4,
{8}7/8,6,5,4/3,,5>1[8:1],6,5b/7b,
,7,6/8,1,8/2-8[8:1],3,7qq4[16:7],6,
1h[4:1],,,8,,1<5[8:1],2,1/3,
,4,5/3,2,1/7-1[8:1],6,2pp5[16:7],3,
8h[4:1],,,1<6[8:1],,4b,{4}4b-1[8:1],
4/5,{8}8,8<5[8:1]*>3[8:1],,8w4[8:1],,8,
,,{4}2/7,{16}6h[16:3],,,5h[16:3],,,{8}4,
{4}3-1[8:1],{8}8,8-4[8:1],,7,6,5h[4:1],
,4,3/6,1/8,{4}7b/2b,4/5,
{8}2>5[8:1],1,2,8,2>5[8:1],8,2,7,
{4}6qq5[4:1],5qq8[16:5],2,1,
2V47[4:1],7V52[4:1],{8}8,8,,1-4[8:1]/8-5[8:1],
,1/8,,3/6,{2}8b/1b,
E
