&title=Necromantic
&artist=㚁Records
&first=0
&des=NullZone
&lv_5=13
&inote_5=(144)
{64},{192},{1},
1>8[4
:
3],1>8[4
:
3],1>8[4
:
3],1>8[4
:
3],
{4}
1h[8
:
1],2h[8
:
1],3h[8
:
1],4h[8
:
1],
5h[8
:
1],6h[8
:
1],7h[8
:
1],8h[8
:
1],
1h[8
:
1],2h[8
:
1],3h[8
:
1],4h[8
:
1],
5pp3[2
:
1]/1pp7[2
:
1],,,,
{8}
5/2,3,7/4,6,5/2,3,7/4,6h[4
:
1],,8,7,1,8<5[8
:
1],8,3>8[8
:
1],3,
4-8[8
:
1],4,1-3[8
:
1],1,7-5[8
:
1],7,4-8[8
:
1],4,7,7,1,5,
{16}2h[16
:
3],,,3h[16
:
3],,,4,,{8}
4/7,6,2/5,3,4/7,6,2/5,3h[4
:
1],,1,2,8,1>4[8
:
1],1,6<1[8
:
1],6,
5-1[8
:
1],5,8-6[8
:
1],8,2-4[8
:
1],2,5-1[8
:
1],5,2,2,8,4,
{16}7h[16
:
3],,,6h[16
:
3],,,5,,
4b/3b,,,,
2h[16
:
1],5h[16
:
1],2h[16
:
1],5h[16
:
1],
3h[16
:
1],6h[16
:
1],3h[16
:
1],6h[16
:
1],
4h[16
:
1],7h[16
:
1],4h[16
:
1],7h[16
:
1],
5-1[8
:
1],,5,,7,,6,,2,2,5,5,4,4,7,7,1b,,
6,,5,,4,,3,,,6h[16
:
5]/8,,,,,{24}7,8,1,2,3,4,{16}
6h[16
:
1]/5h[16
:
1],,6h[16
:
1]/5h[16
:
1],,
7h[16
:
1],,7h[16
:
1],,3,,8/2,,
6,5,7,4,5,,3,4,2-6[8
:
1],1,,1,2,,8,,
4h[16
:
1],,4h[16
:
1],,5/3,,2,2,6,1,,7,7,,5/2,,
3,4,2,5,4,,6,5,7,8,,4,6,5,6,,
8/4,,8/4,,7/3,,7/3,,6/2,,6/2,,5/1,,5/1,,
7b-4[8
:
1],,6/8,,1,,1,,7-3[8
:
1],,6/8,,1,,1,,
5b,4,5,,3,4,3,,6,5,6,,7/1,,5/3,,
2b-5[8
:
1],,8/1,,7,,7,,2-6[8
:
1],,8/1,,7,,7,,
4-1[8
:
1],,3,,7<5[8
:
1],,8,,2v5[8
:
1],,3,,
7p4[8
:
3],,8,,3b>8[8
:
1],,,,
,,,,
,,6/2,,7/3,,8/4,,7b,,
2>4[8
:
1],,8-4[8
:
1],,2-6[8
:
1],,8<6[8
:
1],,2,,8,,,,
4bqq7[8
:
3]/3bpp8[8
:
3],,,,
,,,,
,,,,
,,,,6/2,,
8<5[8
:
1],,1>4[8
:
1],,8-4[8
:
1],,1-5[8
:
1],,8,,1,,,,
6>3[8
:
1],,7,,8,,1<6[8
:
1],,2,,3h[4
:
1],,,,4<1[4
:
1],,,,
1v6[8
:
1],,2,,3,,4>1[8
:
1],,4,,,,7qq4[8
:
3],,,,8,,1,,2,,
3-6[8
:
1],,3,,,,7,,8>3[8
:
1],,,,6-2[8
:
1]/8,,,,4,,4,,7,,7,,
3<6[8
:
1],,2,,1,,8>3[8
:
1],,7,,6h[4
:
1],,,,5>8[4
:
1],,,,
8v3[8
:
1],,7,,6,,5<8[8
:
1],,5,,,,2pp5[8
:
3],,,,1,,8,,7,,
6-3[8
:
1],,6,,,,2,,1p5[8
:
1]
*
q5[8
:
1],,,,1,,,,3,,4,,5,,6,,
7/8,,4,,1/2,,5,,7/1,,4,,8/2,,5,,
7/1-6[8
:
1],,2,,1/3,,2,,7/1-5[8
:
1],,2,,1/3,,2,,
1>4[8
:
1],,1,,5<8[8
:
1],,5,,2>5[8
:
1],,2,,6<1[8
:
1],,6,,
3<6[8
:
1],,3,,7,,7,,8bw4[190#8
:
1],,,8b,,,6b/2b,,
7-3[8
:
1],,3-6[8
:
1],,7,,2,,1-5[8
:
1],,5-2[8
:
1],,1,,8,,
7,,7,,7/1,,7,,7/4,,7,,7/6,,7,,3h[4
:
1],,1,,4h[4
:
1],,8,,
3h[4
:
1],,1,,4,,3,4,3,,5/2,,6/1,,7h[2
:
1]/8,,2b,,,4b,,,6b,,
2/1,,5,,8/7,,4,,2/8,,5,,1/7,,4,,
2/8>3[8
:
1],,7,,8/6,,7,,2/8q4[8
:
1],,7,,8/6,,7,,
8-5[8
:
1],,8,,4-1[8
:
1],,4,,7-4[8
:
1],,7,,3-8[8
:
1],,3,,
6-3[8
:
1],,6,,2,,2,,1bv6[190#8
:
1]
*
v4[190#8
:
1],,,1b,,,3b/7b,,
2-6[8
:
1],,6-3[8
:
1],,2,,7,,8-4[8
:
1],,4-7[8
:
1],,8,,1,,
2,,2,,2/8,,2,,2/5,,2,,2/3,,2,,6h[4
:
1],,8,,5h[4
:
1],,1,,
6h[4
:
1],,7,,5h[4
:
1],,2,,6h[4
:
1],,8,,5h[4
:
1],,1,,
6b-3[190#8
:
1],,,6/2b-7[190#8
:
1],,,5b/2,,
{16}
(145)
6V84[4
:
1],,,,
,,,,2h[16
:
3],,,3h[16
:
3],,,4,,
4pp2[4
:
1],,,,
,,,,7h[16
:
3],,,8h[16
:
3],,,1,,
1<4[4
:
1],,,,
,,,,2h[16
:
3],,,3h[16
:
3],,,4,,
4,,3,,2,,1,,8,,7,,6,,5,,4qq8[2
:
1]
*
pp8[2
:
1],,,,
,,,,
,,,,
,,,,
(147)
7V15[2
:
1]/1s5[2
:
1],,,,
,,,,
,,,,
,,,,
6<3[2
:
1]/4V27[2
:
1],,,,
,,,,
,,,,
,,,,
4,5,4,5,3,6,3,6,2,7,2,7,1,8,1,8,
(150)
2,,2-6[8
:
1],,6-3[8
:
1],,6,,7h[8
:
1],,,7h[8
:
1],,,
8<5[8
:
1]/4>1[8
:
1],,8/4,,,,
,,,,
6h[8
:
1]/2h[8
:
1],,,8h[8
:
1]/4h[8
:
1],,,
6/2,,8v5[8
:
1]/4v1[8
:
1],,,,
,,,,
7h[8
:
1]/8h[8
:
1],,,7h[8
:
1]/1h[8
:
1],,,7/2,,6/3,,6/3,,5/4,,5/4,,
6/3,,6/3,,7/2,,7/2,,
(152)
8bqq5[2
:
1]/1bpp4[2
:
1],,,,
,,,,
,,,,
,,,,
8V64[2
:
1]/1V35[2
:
1],,,,
,,,,
,,,,
,,,,
6q7[2
:
1]/3p2[2
:
1],,,,
,,,,
,,,,
,,,,
2,,1,,8,,7,,2,4,3,7,5,6,
(144)
1-5[8
:
66],,,,
,,,,
,,
4h[8
:
1],,,,4h[8
:
1],,,,6h[8
:
1],,,,6h[8
:
1],,,,
3,,3,,7b,,,,3,,3,,8b,,,,3,,3,,1b,,,,3,,3,,2b,,,,3,,3,,1b,,,,
8h[8
:
1],,,8h[8
:
1],,,8,,
3,,3,,4b,,2,,7,,7,,6b,,8,,1,,1,,2b,,2,,3,,3,,4b,,4,,1,,1,,8b,,8,,7,,7,,6b,,6,,
3,,2,,7b,,8,,1h[8
:
1],,,1h[8
:
1],,,1b,,
7-5[8
:
1],,4,,7-1[8
:
1],,4,,7-5[8
:
1],,3,,7,,3,,
4v1[8
:
1]/2,,5/3,,6/4,,7,,8<5[8
:
1]/2,,3,,8/2,,1,,
4q8[8
:
1]/2,,4,,3v1[8
:
1],,3,,7<5[8
:
1],,7,,2-6[8
:
1],,2,,
4,,4,,5/3,,5/3,,7b-3[190#8
:
1],,,7b/3b,,,5b/1b,,
2>4[8
:
1],,5,,2<8[8
:
1],,5,,2>4[8
:
1],,6,,2,,6,,
5-8[8
:
1]/7,,4/6,,3/5,,2,,1-4[8
:
1]/7,,6,,1/7,,8,,
5/7,,5p1[8
:
1],,1v4[8
:
1],,8,,7,,6,,5,,3,4,2,,2-6[8
:
1],,
6-2[8
:
1],,7,,8b-4[190#8
:
1],,,8b,,,5b/3b,,
{1}
7b<8[1
:
2]/1b>8[1
:
2],,,,
