&title=Grip & Break down !! [BlackY Remix]
&artist=BlackY&SOUND HOLIC
&first=0
&des=NaOH
&clock_count=4
&lv_5=14
&inote_5=(165),,,,,,,,
{16}15,,,5-8z4[16:9]/1,,,15,,,,,,,,,,,,,,
36,,,27,,,2V85[16:5]b/7-3[16:5]b,,,,,,,,,,,,,,
28,,,7^6-8^7-3[16:9]`1^2-8^1-5[16:9]b,,,17,,,,,,,,,,,,,,
64,,,63,,,62,,7,1,7,2,7,3,7,4,7,5,8qq4[8:5],4,8,,,,{32}E4,E3,E2f,,,,,,,,,,,,,,,,,,,,,,
{16}25,,,47,,,1v6^7V13-8[4:4]/5,,,,4h[4:4],,,,,,,,,,,,,,,,,,,,,,
{8}7-5[12:1]/4,,37,,4-8[8:1]/3,,1,2,3-8[8:1]/7,,36,,1>4[8:1]/6,,5,6,
7-3[8:1]/2,,17,,5<8[8:1]/1,,2,1-6[8:1],,8-3[8:1],,2-5[8:1],,7-1[12:1],,,
{16}4,,3,,12,,3,4,3>8[8:1],,7,,6,,5,,45,,6,,78,,6,5,6^3[8:1],,2,,1,,8,,
15,,2,,34,,6,5,6,,1,8,1,8,1s5[4:3],8,1,,,,,,,,6-2[8:1]b,,,,6b,,,,
34,,2,4h[8:1],,3,5h[8:1],,1,,7,5h[8:1],,6,4h[8:1],,
8,,3,4,,25,25,,1>4[8:1]/6<1b[8:1],,,,1b/6b,,,,
28,,3,1h[8:1],,2,8h[8:1],,4,,6,8h[8:1],,7,1h[8:1],,
5,,2,1,,38,38,,7-3[8:1],,3-7[8:1]b,,,,,,
1,,3,4,,2,12,,38,,6,5,,7,78,,16,,3,24,,6,57,,8<5[8:1]/4>1b[8:1],,,,4b/8b,,,,
2h[8:1]/4h[8:1],,,5h[8:1]/7h[8:1],,,18,,3h[8:1]/5h[8:1],,,4h[8:1]/6h[8:1],,,18,,
4>7[6:1]/3,,,,4bx/5x,,,,5<2[8:1],,,,5bx/4xz8^2-6[8:7],,,,,,,,,,,,7-3[8:1]b,,,,7b,,,,
4x/5x,,3,4,2>5[8:1],,8,8,2,,7,7,1-5[8:1],,2,7,1,,8,8,2,,37,,8,4,6,2,8-4[8:1],,,,
3-1[12:1]/8,,2,,7V53[6:1]/3,,8,,7,,{16}2,1,8-4[8:1],,1,,
7-3[8:1]/8,,5,,8-4[8:1]/7,,2,,8w4[8:1]b/7,,,,8b,,,,
5x/6x,,6,5,7<4[8:1],,1,1,7,,2,2,8-4[8:1],,7,2,8,,1,1,7,,62,,1,5,3,7,1-5[8:1],,,,
6-8[12:1]/1,,7,,2-4[12:1]/6,,3,,12,,8,7,6-2[8:1],,5,,46,,3,,{24}7,6,5,1,2,3,
{16}8b-6[16:1]/4b-8[12:1],,,4b/8b,,,,,
1x/5x,,3,4,2V48[4:1],,1,8,2,,7,6,5-1[8:1],,4,4,5,,2,3,48,,26,,1,5,3,7,1-5[8:1]/6,,,,
7-4[8:1]/1,,6,,2-8[12:1]/7,,3,,27,,6,5,3>8[8:1]/4,,2,,4<7[8:1]/3,,5,,
4-1[8:1]/3,,2,,4w8[8:1]b/5,,,,4b,,,,
3V15[4:1]/7,,37,,5>7[4:1],,6-2[8:1]b,,,,6,,,,4h[8:3]/8,,,,1,,
{24}8,7,6,2,3,4,{16}8bV62[4:1]/5,,,1b,,,3b,,
3,,34,,25,,16,,78,,{24}18,27,36,45,,,45,36,27,1bs5[4:2]`8bz4[4:2]b,,,,,,,,,,,,,,,,,,,,,,,,
{16}
6qq8^1q4[4:6]/2,,,6/2h[16:25],{4},,,,,,,
{16}2p8^6p4[4:6]/5,,,2/5h[16:25],{4},,,,,,,
{16}6qq3^6[4:6]/3,,,36,,,{32}3x,2xqq7^2[32:35]b,1x,,{4},,,,,,
{16}2h[8:1]/5h[8:1],,,4h[8:1]/7h[8:1],,,8-5^4-1-4^5-8[8:9]/1,,,,
{32}A2,B2,C,B6,A6f,,,,,,,,{4},,,,
E2/D2,E3/D3,E4/D4,E5/D5,E6/D6,E7/D7,E8/D8,E1/D1,
2h[4:1],4h[4:1],5h[4:1],7h[4:1],1-5[4:1],7s3s7[4:2],,,
{8}4,4,5,5,6,6,7,7,18,18,27,27,36,36,45,45,{16}3,3,5,5,1,1,7,7,2,2,{32}6,5,4,,{16}
1,1,{32}7,6,5,,{4}4>5s1[4:5]b,A5f,,,,,,,
{8}
12,3b-8[8:1]/8,,7b-4[8:1]/3,,1b-4[8:1]*-6[8:1]/7,,1b,,
{16}3,5,2,6,1,7,{32}1-5[8:1],2,3,4,5,6,7,8,1b,,,,,,,,
{16}3,4,2,2,6,5,7,7,3,4,2,5,1-5[8:1],,8-6[12:1],,
1-3[12:1],,8-4[8:1],,1-5[8:1],,8,,1bw5[8:1]b,,,,1b,,,,
6,5,7,4,8<5[8:1],,2,2,8>3[8:1],,4,4,8-4[8:1],,1,1,8,,
{24}3,2,1,8,,,14,25,36,4-8[8:1]/7,,,,,,4b/7b,,,,,,
{16}23,,45,,6/7-3[8:1],,18,,7,,{24}2,1,8,7,,,{16}6,4,
5<8[8:1],,36,,{32}1,2,3,4,1x,2,3,4,1b-4[8:1]/5b-8[8:1],,,,,,1b/5b,,,,,,,,,,
{16}3,4,2,5,1>4[8:1],,7,7,1<6[8:1],,5,5,1-5[8:1],,8,8,1,,
{24}6,7,8,1,,,85,74,63,5-1[8:1]/2,,,,,,5b/2b,,,,,,
{16}6,5,7,7,3,4,2,2,6,5,7,4,8-4[8:1],,1-3[12:1],,
8-6[12:1],,1-5[8:1],,8-4[8:1],,1,,8bw4[8:1]b,,,,8b,,,,
3,6,2,7,1,,78,,6,4,5h[8:1],,2,4,3h[8:1],,6,5,7,4,
{32}3b/8b,7,6,5,4b/1b,2,3,4,{16}5bV36[8:1]/8bV27[8:1],,,5b/8b,,,,,
1,8,3,4,2,5,3,4,2,1,3,5,4,6,5,7,1>7[4:1]b*-3-5-7[4:1]b,,,,,,,,,,,,B2/B3/E3/Cf/B6/B7/E7,,,,
3x-6[8:1]/7x-4[8:1],,,,3b/7b,,,,
1x/2x,,2,4,,4,5,,5,7,,7,5,,5,4,,4,2,,12,,38,,
1h[8:1]/2,,2,4,3,5,4,6,5h[8:1],,8,6,7,5,6,4,
8h[8:1],,5,1,3,7,2,6,1v4[8:1]/7v4[8:1],,26,,1b/7b,,,,
3x/5x,,3,1,,1,8,,8,6,,6,8,,8,1,,1,3,,43,,25,,1,6,3,4,1-6[16:1],,,,
3bx-8[16:1]b,,,5bx-2[16:1],,,7bx-4[16:1]b,,,1bx-6[16:1],,,2,,,
2b-5[16:1],,,8b-3[16:1]b,,,6b-1[16:1],,,4b-7[16:1]b,,,3,,,3,,
2xh[16:3]/1x,,,1,2h[8:1],,7,,2h[16:3]/8,,,8,2h[8:1],,6,,
2h[16:3]/7,,,7,2h[8:1],,4V68[6:1],,,,1,2,3,4,5h[8:1],,
6,6,5,7h[8:1],,3,7,4,6,3,5,2,8,4,6,3,5,1,8,4,6,3,5,2,7,4,5-1[8:1],2,6,4,5,,
{24}3,7,3,7,3,7,3,7,3,7,3,7,3,7,3,7,3,7,3,,,2x/8x,,,
{16},,3,4,,6,5,7-4[8:1],4,8,3,7,,,2,,34,,34,,25,,25,,
16,,{32}1,2,3,4,5b,,,,7,6,5,4,{4}3b>5s1[4:2]b,,{32},,,,A2,B2,C,B6,A6f,,,,,,,,
{16}1xh[8:1]/7xh[8:1],,,3xh[8:1]/5xh[8:1],,,1xh[8:1]/7xh[8:1],,,
2x,3,4,1x,2,3,8x/4x,15,26,37,,
8xh[8:1]/2xh[8:1],,,6xh[8:1]/4xh[8:1],,,8xh[8:1]/2xh[8:1],,,
7x,6,5,8x,7,6,1x/5x,84,73,62,,
1xh[8:1]/7xh[8:1],,,3xh[8:1]/5xh[8:1],,,1xh[8:1]/7xh[8:1],,,
2x,3,4,1x,2,3,8x/4x,15,26,37,,
8xh[8:1]/2xh[8:1],,,6xh[8:1]/4xh[8:1],,,8xh[8:1]/2xh[8:1],,,
1,5,3,7,2,6,1,5,8,4,,3h[32:6]/7h[32:6],,,,
{32}7bxv4^5-8[4:1]`3bxv8^1-4[4:1]b,4h/8h,1h/5h,2h/6h,3h/7h,,,,,,,,,,,,
{4},{16}2bh[8:1]/4bh[8:1],,,7bh[8:1]/5bh[8:1],,,1/8z4[8:1],,,,
1s5<2z6b[8:9]/8/Cf/B2/B3/B6/B7,,,,,,,,,,,,,,,,,,,,,,,,,,3b,,,,
