&title=一龠
&artist=D.J.ァネイロ
&first=-1.19
&des=不足
&lv_5=14+
&inote_5=(175)
{1},
{1},
{1}1b-7[1:3],
{1},
{1}2-6[1:3],
{4},,,3b,
{1}3b-5[1:3],
{1},
(170)
{4}3h[4:1],,2h[4:1],,1,1,1^6-2-4b[16:5],{8}5bx-1[8:1],4bx,
(175)
{32}5bx,Cf,,,,,,,{16}2,1,2,,4,3,4,,2h[4:1],,B2,,
{16}C,,B6,,8-4[8:1],,4-8[8:1],,A5/D6,,,,A3/D3,,,,
{8}1h[8:1],5-7[8:1],,5,4,{16}5,6,5,,8h[8:1],,
{16}5-2[8:1],,,,5,,6,,5,4,5,,3-7b[8:1],,2,,
{16}3bx/1V75[4:1],,,,5>1[4:1],,,,1,,,,5V37[16:3],,,,
{16}1,,,,5x-1[8:1],,,,5x^8[8:1]*^2[8:1],,,,5x,,,,
{16}1,2,3,4,5,,5,,8,7,6,5,4,,4-8^1-5^7[8:3],,
(170)
{8},4x^2[8:1],,,,,1b/8b,,
(174)
{256}A7/B7/B2/A2,E3,E7,D3,D7,B3,B6,A3,A6,E4,E6,D4,D6,A4,A5,B4,B5,,,,,,,,,,,,,,,,,,,,,,,,,,,,,,,,,,,,,,,,,,,,,,,,,{8}1x^4[8:1],1,1,1x^6[8:1],1,1,
{16}4,3,2,1,{8}8-4[8:1]/4^7[8:1],5,,,8-4[8:1],7,
{8}6z2[8:1]*-3[8:1]/8,,6,,1h[8:1],7-2[8:1],,3/7,
{16}4,5,{8}6/3,,1,4,3-1[8:1]/4,3/4-8[8:1],3,
{8}4,,5/6,,8h[8:1],2h[8:1],4h[8:1],6-4[12:1],
{8},6/2-6[8:1],,8-2[12:1]/2,,8/4,{16}3,3,3,3,
{16}3,4,3,4,2,1,2,1,4,5,4,5,8,7,8,7,
{8}5-1[8:1],B3/B4,8^5[8:1]/5x,B7/B6,{32}2bxw6[8:1]/8x,,,,{8},2,,
{8}8pp3qq2b[16:31],,6,5h[64:7],7,6,5,7,
{8}5h[64:7],6,7,5h[64:7],6,,7^4[16:3],,7,,,D2,E1,7h[64:1],7h[64:1],D6,
{8}E5,3h[64:1],3h[64:1],C,1^4[8:1]*v8[8:1],,,,
{8}1qq6pp7b[16:31],,3,4h[64:7],2h[64:15],,3h[64:15],,
{8}4h[64:7],3,2,4h[64:7],3,,2^5[16:3],,2,,,D8,E1/3h[4:1],,,D4,
{8}E5/7h[4:1],,,5h[4:1],,6,8,1,
{8}3,,3,4,3,,3,5,
{8}6,,6,5,6,,6,4,
(180)
{8}3/7,4,2/6,5,3/7,4,2/6,5,
(185)
{64}3,4,,,,,,,2,5,,,,,,,1,6,,,,,,,8,7,,,,,,,{32}1,2,3,4,5,6,7,8,1bw5[8:1]/Chf[64:15],,,,,,,,
{8}1bx,,{16}8,,1,,6,5,{24}6,4x,5,6,3h[8:1],,,7x,6,
{24}5h[8:1],,,1x,2,3,4h[8:1],,,{32}8x,1,2,3,4,5,6,7,8/2V46[6:1],,,,,,,,2/4,,,,
{24}8-4[8:1],,,,,8,,,,{32},,,,2,,,,4h[32:4],,,,7V53[6:1],,,,7/5,,,,
{32},1,,,,,,2x,,1,,8,,7,,6,4h[8:1],,,,,,4h[8:1]/B2/B1,,,,,,4/B7/E7/A7,,,5h[8:1],
{24},,,1x,8,7,6h[8:1],,,{32}4,,5,,,,2,,1,,,,3,,4,,,,1,,
{24}8h[8:3],,,,,7x,6,5,4,3,2,1,{32}7h[8:1],,,,,,7h[8:1]/B5/B4,,,,,,7/B2/E2/A2,,,,
{24}5h[8:1]/6,,,,,3,4h[8:1],,,,1x,2,3,6x,7,8,1x,2,{32}3,,,,5/4,,,,
{64}4/5,,,,,,,,,,,A3/E3/D3/A2,B2,E2,D2,A1,A6/E7/D7/A7,B7,E8,D8,A8,,,,A5/A4/E5/B5/B4,,,,,,,,{16},,6x,,6hx[16:3]/2hx[16:3],,,,
{16},3hx[8:1]/7hx[8:1],,,4hx[8:1]/8hx[8:1],,,1hbx[8:1]/5hbx[8:1],,,4hx[8:1]/8hx[8:1],,,1hx[8:1]/5hx[8:1],,,2hx[8:1]/6hx[8:1],,,1hbx[8:1]/5hbx[8:1],,,2hx[8:1]/6hx[8:1],,,{32}1x,8x,7x,5x,4x,3x,{16}2hx[8:1]/6hx[8:1],,,,5hx[8:1]/1hx[8:1],,,8hbx[8:1]/4hbx[8:1],,,5hx[8:1]/1hx[8:1],,,8hx[8:1]/4hx[8:1],,,,8hx[8:1]/4hx[8:1],,,
{16}5hbx[8:1]/1hbx[8:1],,,8hbx[8:1]/4hbx[8:1],,,7hx[8:1]/3hx[8:1],,,8hx[8:1]/4hx[8:1],,,{32}1x,2x,3x,5x,6x,7x,{16}8x/4x,
(180)
{16},2h[8:1]/1h[8:1],,,3h[8:1]/5h[8:1],,,6hb[8:1]/7hb[8:1],,,8h[8:1]/2h[8:1],,,3h[8:1]/4h[8:1],,,
(185)
{16}5hb[8:1]/7hb[8:1],,,8h[8:1]/1h[8:1],,,2h[8:1]/4h[8:1],,,4/5,,8h[8:1]/6h[8:1],,,3h[8:1]/1h[8:1],,
{16},5h[8:1]/4h[8:1],,,8hb[8:1]/6hb[8:1],,,3hb[8:1]/4hb[8:1],,,1hb[8:1]/7hb[8:1],,,4hb[8:1]/5hb[8:1],,,
{16}8hb[8:1]/2hb[8:1],,,5hb[8:1]/6hb[8:1],,,1b/3b,,
(170)
{64}A7/A6,E7,B7/B6,C,B2/B3,E3,A2/A3,,,,,,,,,,{8}1-5[8:1]/5-1[8:1],1/5,
(180)
{8}1/5,,{16}7,8,6,,6,7,5,,8h[4:1],,E7,,
(185)
{16}C,,E3,,1v4[8:1],,4v1[8:1],,A3/D3,,,,A5/D6,,,,
{8}8h[8:1],5-3[8:1],,5,6,{16}5,4,5,,1h[8:1],,
{16}3-6[8:1],,,,3,,2,,3,4,3,,5-1b[8:1],,6,,
{16}5bx/7z3[4:1],,,,3z7[4:1],,,,7,,,,3V51-7[16:5],,,,
{16}7,,,,3-7[8:1],,,,3-1[8:1]*-5[8:1],,,,3,,,,
{16}7,6,5,4,3,,3,,2,3,4,5,6,,6,,
{8}7,8/1,2,1/7,6,8/2,3,1/8,
(180)
{1}7^2[44.875#128:3]/3^6[44.875#128:3],
{16},,,,,,,,,,3^6[8:1],,2,1,3,,
(185)
{16}7-3[8:1],,8-2[8:1],1,7,,8-4[8:1]*-6[8:1],,,,8,,,,5-8[8:1],4,
{16}6,,5,,7,,1,2,3,4,5/6v1[8:1],,5,4,6,,
{16}2,,7,8,7,8,6^1[8:1],1,,4,6,,3,,2,4,
{16}1-4[8:1],,7,,1,,8,7,6,5,4/3-8[8:1],,4,5,3,,
{16}E7,,,5,E8,,4,,E1,,3/2,,1^4[8:1],,6^1[8:1],,
(180)
{16}1,,6,,5,,5-8[8:1],,5,5,5,,C,,2,3,
(185)
{16}4,,1,,1,,1,,1^6[8:1],3,1,,4^1[8:1],,,5,
{16}4-8[8:1],,,,7,,,,{16}1,2,7,6,2,3,6,5,
{16}8,,,,1/8,,2,1,2,,1/8,,7,6,5/3,,
{16}1/4,,,1/4,,,1/4^7[8:1],,2/3,,1,2,3,,4/8,,
{16}4/8,,7,6,7,6,8,5,8,5,1,4,1p3[8:1],,3q1[8:1],,
{16}2-6[8:1],,,,2,,,,7,,8/6,,1,2,3,4,
{16}5b/6b,,7,,8/2,,3,,4b/5b,6,7,8,2,3,4,5,
(175)
{16}6h[8:1]/7h[8:1],,,6h[8:1]/7h[8:1],,,6h[8:1]/7h[8:1],,,6h[8:1]/7h[8:1],,,6h[8:1]/7h[8:1],,,6h[8:1]/7h[8:1],,,6h[8:1]/7h[8:1],,,6h[8:1]/7h[8:1],,,6h[8:1]/7h[8:1],,,6h[8:1]/7h[8:1],,,6/7,,
{16}2h,4h,3h,6h,4h,6h,4h,7h/3h,6h/2h,5h/1h,8h/4h,,,,
(185)
{8}7pp2^7b[16:31],,5,4h[64:7],5,,3,,
{8}4h[64:7],5,6,4h[64:7],5,,3v6[16:3],,3,,,D1,E8,6h[64:1],6hx[64:1],D5,
{8}E4,2h[64:1],2hx[64:1],C,8-2^3[8:1]*v5[8:1],,,,
{8}2qq7^2b[16:31],,4,5h[64:7],3h[64:15],,4h[64:15],,
{8}5h[64:7],4,3,5h[64:7],4,5,6v3[16:3],,6,,,D1,E2/4h[4:1],,,D5,
(180)
{8}E6/8h[4:1],,6h[4:1],,7,8,1,2,
{8}3,,3,4,3,,3,5,
(185)
{8}6,,6,5,6,,6,4,
(190)
{8}2/5,3,4,3,2/5,3,4,5,
(195)
{8}7/4,6,5,6,7/4,6,5,4,
(200)
{8}2-4[8:1]/8,1,2/6,7,2-5[8:1]/8,1,2/6,7,
(205)
{8}8-6[8:1]/2,1,8/4,3,8-4[8:1]/2,1,8/3,2,
(210)
{16}1b,8,7,6,3b,2,1,8,5b,4,3,2,7b,6,5,4,
(215)
{16}1b,3,1b,3,8b,2,8b,2,7b,6,5,4,{32}8bw4[1:1],1,2,3,8,7,6,5,
{1}8x,
E
