&title=Usagi Flap (EmoCosine Remix)
&artist=EmoCosine/Aice room
&first=0
&des=sensei
&lv_5=13+
&inote_5=(175)
{1},
{8},,,,,5,4,3,2/6x,,5x,,
{8}1,1,7,6,,3,4,5,,5,4,3,
{8}7bx/2,7,4x,4,6x,7-4[8:1],8x,
1-5[8:1]/7x,,1xv4[8:1]/7v4[8:1],,7x/1,,
18,2b>5[8:1]/7b,,2/6<1[8:1],,6/4>1[8:1],,
{16}4/7h[16:1],,,6h[16:1],,,2/5v8[8:1],,,,
5/3,,3,,,,1h[16:1]/7h[16:1],,,2h[16:1]/6h[16:1],,,3/5,,4,,56,,7,,28,,1x,8x,7x,6x,5x,4x,3xh[8:7],,1,,,,1,,,,1-5[8:1],,,,1b,,,,
{8}3-1[8:1]/4,4,4/3,4,4/3-1[8:1],,4h[8:1]/3,,
5/6-8[8:1],5,56,5,5/6-8[8:1],,5h[8:1]/6,,
1-5[8:1],2,31,4,6-1[8:1],,6/3,4,8x-6[8:1],4xh[8:3],,,8x-6[8:1],,,,
4,4,46,6,63,3,38,{16}8x,7x,{8}6x/2,3,48,7,61,16,27,
{16}2,8,2,8,2,8,2,8,2,8,2,1,2,1,2,1,2,1,
{4}E3,B6/B5,E1/B8/B1,Cf/B7/B6/B2/B3/E7/E3,
{8}3-1[8:1],2,5<8[8:1],6,3,3,1-7[8:1],2-6[8:1],1-5[8:1],2-4[8:1],1<5[6:1],2,1b,,
3>1[8:1],4,7<4[8:1],8,2q6[8:1],1,6,7,8<6[8:1],1p5[8:1],8q4[8:1],1>3[8:1],8V64[6:1],1,8b,,,,
{8}5-7[8:1]/3,3,3/5x,3,3b/5-1[8:1],,
2/5x,3,4-2[8:1]/6,6,6/4x,6,6b/4-8[8:1],,
4x/7,6,6-1[8:1],2-5[8:1],6>8[4:1],2,6,,,
{16}4x/5x,,,,4x/5x,,,,4x/5x,,4xq1[8:1]/5xp8[8:1],,,,E5/B5/B4/E6/E4,,,,
{12}2x>5[8:1],,2,8p4[8:1],,8,3>1[8:1],,3,7<5[8:1],,7,2-5[8:1],,2,8V64[6:1],,8,1b,,,1>4[8:1],,1,
7p3[8:1],,7,1q5[8:1],,1,6<8[8:1],,6,2>4[8:1],,2,7-4[8:1],,7,1V35[6:1],,1,8b,,,B6/B5,,,
2-4[8:1],,6,2qq5[4:1],,5,2b,,,6,,4x,
7-5[8:1],,3,7pp4[4:1],,4,7b,,,3,,5x,
2x,2,2,1x,1,1,8x,8,8,6x,6,6,3b,,3,5,,5,2,,2,8bx,,,
{8}2,,6,,3,,5pp2[4:3],1>4[4:1],,,,,,,,,
1,,6,,2,,6pp3[4:3],4>1[4:1],,,,,,,,,
{8}2,,6,,3qq5[4:4]b,,6pp4[4:3],6,,,,,,,,,
7,,4,,6,,3,3,
2b/8b,,1xh[16:1],1xh[16:1],1xh[16:1],1xh[16:1],1bx,,
2,,8,2,7,3,6,4h[8:7],,B3,B2,B1,B8,B7,
{16}B6,,3x,2x,1xh[1:1],,,,
{4}8,7,6,5h[8:5],,3h[4:1],,
2h[1:1],5,6,7,8h[1:1],1,2,3,
{8}3h[4:1],,,2h[4:1]/5h[4:1],,,,1h[8:5]/6h[8:6],,,,,,,,,
{8}2h[8:1]/B8,,2h[8:1]/B7,,2h[4:1]/B6,,C,,3h[8:1]/E8,,3h[8:1]/E7,,3h[4:1]/E6,,C,,
4h[8:1]/6,,4h[8:1]/1,,4/7h[8:3],,2,1<3[2:1],,6h[8:5],,,,,,,
{8}7h[8:1]/B1,,7h[8:1]/B2,,7h[4:1]/B3,,C,,6h[8:1]/E2,,6h[8:1]/E3,,6h[4:1]/E4,,C,,
25,,3,,8,7,6,4x/5x,,4x/5x,,4x/5x,4xv6[8:1]/5xv3[8:1],,4x/5x,,
2x,2,2/5x,2,
{16}2h[4:1]/5x,,,6x,,,7x,,
{8}8x/2x,8,8/2x,8,
{16}8h[4:1]/2x,,,3x,,,4x,,5x/6,,7,,5/6x,,4,,3xh[4:1],,,,8,,7,,3,,7xh[2:1],,4,,,,4,,,3,,,2,,
{8}18,1,17,7,73,3,38,
{16}8x,7x,
{8}6x/1,2,38,7,62,3,48,
{16}7x,6x,1x,2x,8x,7x,2x,3x,7x,6x,
{32}1x,2x,3x,4x,5x,6x,7x,8x,1-5[8:1],2x,3x,4x,5x,6x,7x,8x,
{4}1xb-4[8:1]*-6[8:1],1bxw5[8:1]b,1xb,Cf/B7/B6/B2/B3/E7/E3,
{8}1bx-5[8:1]b,2,7-2[8:1],6,4-8[8:1]b,5,7,6,2-8[8:1]b,7,2>6[6:1]b,6,2b,,
8<5[8:1]b,1,2>4[8:1],3,6q2[8:1]b,7,4p8[8:1],5,7,6,5>3[8:1]b,2,5V71[6:1]b,1,5b,,,,
{8}1-5[8:1],2,3/1x,2,1-5[8:1]b,,1x/6,7,
8-4[8:1],7,6/8x,7,8-4[8:1]b,,8x/3,2,
1>4[8:1],2,7-5[8:1],8,2h[4:1],,,5x/4x,,5x/4x,,5x/4x,5xs1[8:1]/4xz8[8:1],,E5/B5/B4/E6/E4,,
{12}2-4[8:1]b,,5-1[8:1],2x,,5,2q6[8:1]b,,8<5[8:1],2x,,8,1-3[8:1]b,,8-4[8:1],1x<4[4:1]b,,8,1b,,,8,,2,
7-5[8:1]b,,4-8[8:1],7x,,4,7p3[8:1]b,,1>4[8:1],7x,,1,8-6[8:1]b,,1-5[8:1],8x>5[4:1]b,,1,8b,,,,,,
1>4[8:1],,6,1-6[8:1],,5,1-4[8:1],,4,1,,,
8<5[8:1],,3,8-3[8:1],,4,8-5[8:1],,5,8,,,
2x,4,3,7x,5,6,1x,3,2,8x,6,7,1b,,1,7,,7,4,,4,3xb/6b,,,
{1}1s5[2:3]*s5[2:3],,8z4[2:3]*-5[2:3],,8x-2[2:3]/1x-5[2:3],,4pp4[2:3]b*qq4[2:3]b,,
{16}4-8[8:1]/6,,,,7,,,,6,,2,2,5,,3,,
5-1[8:1]/3,,,,2,,,,3,,6,6,4,,7,,
5-1[8:1]/7,,,,8,,,,7,,2,2,5,,3,,
4-8[8:1]/2,,,,1,,2,,3,,6,6,3,,5,,
{8}4,4,7,7,3,3,6,
{16}2,8,2,8,2,8,2,8,2,8,1x,7x,1x,7x,1x,7x,1x,7x,
{4}1x>5[4:1],5<1[4:1],1>5[4:1],5<1[4:1],
1z5[4:4]*-3-7-5[4:4],,,,,,,,
E
