&title=羽化する亞球体
&artist=窓辺リカ
&first=0.004
&des=dissipae
&des_5=dissipae
&lv_5=14
&inote_5=(120){4},{8},,,,,,7-1[16:1],
6,5,{16}3,3,{8}3-5[16:1],6h[8:1],,,1-3[16:1]*-7[16:1],
{16}1,1,,,{8}4,{16}6,6h[16:3],,,{4}7-3[12:1]*>2[12:1],
{8},,4/6,{16}2,2h[16:1],,,{8}7/5,{4}7/5>2[8:1],
8h[4:1],{16}3,4,3,4,{8}3h[8:1],1,3,5/4,
7h[8:1],8h[16:1],7,6/5,6,2,{4}2/4,
{16}2,,,3,{8}3/4,4,{2}4/2>4[8:1],
{16}7,,,6,{8}5/6,5/7,{4}6h[16:1],5/7,
1h[2:1],{8},,,,8-4[12:1],{16}6,2,
{4}8b,{16}6/4,4/6,,2/5,,8/3,{8}8/3,{16}7,5,6,4,
{8}3h[16:1],4h[16:1]/3h[16:1],2h[16:1]/1h[16:1],6h[16:1]/5h[16:1],8/7b-5[16:1]*-4[16:1],3b-1[16:1]*-8[16:1],7b,3b,
6,{16}3,4/3,,6,{8}6/5,{16}2h[8:1],1,1,3,{4}4/2h[8:1],
{8}6h[8:1],5h[8:1],{16}6,5,{8}4/7,{32}2,4,2,4,{8}2,{16}5/1h[16:1],5,{8}2/6,
3h[8:1],4h[8:1],{16}3,4,{8}5/2,{16}4/7,7/4,{8}5/6,{16}4/8h[16:1],4,{8}3/7,
3/7h[16:1],{16}2h[8:1],5,{8}5,{16}7h[8:1],4,4,6,4,5,{8}3h[8:1],{16}4,8,
{8}3/6h[8:1],1,{16}5/7h[8:1],1,{8}1,{32}3,7,3,7,3,7,3,7,{8}2h[8:1],5,
{16}4,7,3,6,2h[16:1],1,{8}8/3,5/7h[8:3],{16}4,4,4,4,{8}3,
5/2h[4:1],{32}5,6,7,8,{16}1,3,{8}3/8,6/1,5/7h[8:1],{32}5,4,3,2,{8}1h[8:1],
{16}5,3,6,4,{32}7,5,7,5,{8}7,{16}2h[16:1],1h[16:1],{8}2h[8:1],{16}1,2,{8}3/8h[16:1],
{32}2,4,2,4,{8}2,{16}7h[8:1],8,8,6,6,1,7,2,8h[8:1],5,{8}5h[8:1],
{16}1<6[8:1],,,7,{8}7,4,{4}4xh[4:1],3-5[16:1],
{8}8>3[8:1],{16}2,2,,5x-7[16:1],,5xh[8:1],,,,,4,4,{8}4,
{16}1<6[12:1],,,2,{8}1,5x-8[12:1],{4}3/4,1h[8:1],
{8}7>2[12:1],{16}6,5,{8}7,{16}5,5,{8}3/5,6/4,{16}3<6[12:1],8,{8}8,
{4}1xh[8:3],{8}8,2h[8:1],{12}6,5,4,2,3,4,
7/3,7/3,3/7,5/1,1/5,5/1,{32}1,2,3,4,7,6,5,4,8,1,2,3,1,8,7,6,
{16}1b/5h[4:1],,,3,{8}3,6/2,{16}7-5[16:1]/1v7[16:1],,,2,{4}7,
{16}3>8[12:1],,,5,{8}3,6h[8:1],{16}7>2[12:1],,,5h[16:3],{4}7,
{8}3xqq8[4:1],{16}7,7,,6,{8}6,{4}5pp2[4:1],8h[8:1],
{8}1xpp4[4:1],{16}7,7h[16:3],,,,,{8}6pp1[4:1],2xh[16:1],2xh[16:1],2xh[16:1],
{16}3xqq6[4:1],,,5,{4}5h[8:1],7p4[4:1],2h[8:1],
{16}1xpp8[4:1],,,5h[8:1],,,{8}6h[16:1],{16}7p4[4:1],,,2h[8:1],,,{8}1,
{4}3x>6[4:9],6,{16}6,6,,5,{8}5,5,
{2}5h[4:1],{16}4,4,,3,{8}3,4,
{16}5,,,5,,,{8}5,{16}4,,,4,,,{8}4,
{16}5,1,5,1,5,3,5,3,7,3,7,3,7,5,7,5,
1,5,1,5,1,3,1,3,7,3,1/8,2/7,,5/4,{8}6/3,
{16}2/1,8,8,6,7,7,4,8,7/2,1,1,3,2,2,5,1,
3/6,4,4,2,6,6,7,3,2/5,1,7,7,3,5,5,3,
{32}1,7,2,6,,,3,1,4,8,,,{16}3,3,5/2,7,7,1,4,3,6,5,
7/4,7/4,8,{32}2,1,{16}2,4,7,1,4/8,3,3,6/2,6,2,5,1,
7/3,6,6,1,1,5,{32}4,8,{16}4,6/2,8,5,6,2,4,3,5,
1/5,1/5,2/6,2/6,3/7,3/7,4/8,4/8,{32}5,1,5,1,5,1,5,1,4,8,4,8,4,8,4,8,
{8}3b/7b,{16}5/1-5[12:1],7,2,4,1,6,8h[16:1],2h[16:1],4h[16:1],8,6,3/6,3,7,
{8}7/3,{16}4/8-4[12:1],2,7,5,8,3,1h[16:1],7h[16:1],{8}5h[16:1],{16}3,3/7,2,2/6,
{8}5/1,{16}7/3-8[12:1],6,4,5,3,6,7h[16:1],5h[16:1],3h[16:1],1h[16:1],8,2/8,2,7/3,
{32}6,5,{16}6,{32}3,4,{16}3,2/5,6,7/4,3,{32}2,5,{16}2,6/1,{32}7,8,{16}7,3/8,{32}2,1,{16}2,
{2}8bs4-2z6[2:1],1h[8:3],
{8}3/7,{16}5/1<6[12:1],6,2,4,1,4,5,2,5,8,2/6,2/6,3/7,3/7,
{8}8/4,{16}4/8>3[12:1],3,7,5,8,5,4,7,4,1,7/3,3/7,6/2,2/6,
{8}5/1,{16}7/3-8[12:1],6,1,4,3,6,7,1,5,3,8/2,2/8,7/3,7/3,
5/1,5/1,5/1,5/1,{8}4h[16:1]/8h[16:1],{16}2/6,6/2,2/6,6/2,{8}7h[16:1]/3h[16:1],2/8,1/5h[8:3],
3qq6[2:1],,,C,,,,,6pp4[2:1],
,,C,,,{4}2h[4:1],
{8}4qq7[2:1],,,C,,,{4}1h[4:1],
{8}7<3[16:3],,,2>7[4:1],{16},,,,,,,,8h[2:1],
,,E7,,,{8}E8,{16}2h[2:1],,,E3,,,{8}B1,
{16}5h[2:1],,,B5,,,{8}E7,{16},4h[16:7],,B4,,,{8}E3,
{16}8h[2:1],,,D1,,,{8}D5,{16},3h[16:7],,D3,,,{8}D7,
{16}6h[16:3],,,8h[16:3],,,{8}2h[8:1],{16}5h[16:3],,,3h[16:3],,,{8}1h[8:1],
{16}7,,,7/5,,,{8}2/3,{16}1,7/5,,3/4,,,{8}7/8,
{4}3/1h[16:1],4/6h[16:1],7/3h[16:1],1/5h[8:1],
{16}6h[4:1],,,5,,,{8}3,{16}3h[4:1],,,4,,,{8}6,
{1}6h[1:1],
{16}2,2,4,5,7,7,{8}7/5,{16}3,2,2/4,6,7,7/5,,,2-4[16:1],
4V63[8:1],,8h[16:3],,,,,7-5[16:1],5V36[8:1],{8}8h[4:1],{16},,,,2-4[16:1],
4-6v3[8:1],,8h[16:3],,,,,7-4[16:1],4<5-8[8:1],,2h[16:3],,,,,1-5[16:1],
5>4-8[8:1],,7h[16:3],,,,,6-2[16:1],2<1-5[8:1],,4h[16:3],,,,,8-4[16:1],
4<5-1[8:1],,6h[16:3],,,,,8h[16:7],3,3,3,3,3,3,3,
4-7[16:1],7V51[8:1],,8h[16:3],,,,,6-3[16:1],3-5-8[8:1],{8}1h[4:1],{16},,,,2-7[16:1],
7>8-5[8:1],,4h[16:3],,,,,6-1[16:1],1V38[8:1],,5h[16:3],,,,,4v7[16:1],
7V53[8:1],,1h[16:3],,,,,8v2[16:1],2<1-5[8:1],,,4,4,{8}4,
{16}3-6[16:1],6>5-8[8:1],,8h[16:3],,,,,{2}1-6-8-4[16:3]*-6-8-3[16:3],
E
