&title=far in the blue sky...
&artist=Saikoro
&first=0.015
&des=心白-HW
&des_5=心白-HW
&lv_5=13+
&inote_5=(148){4},,,,,,,,5/3h[8:15],
5,5,5,
4,4,5,5,
4/6h[8:15],4,4,4,
5,5,4,4,
3h[8:15]/6h[16:3],6h[8:1],5h[16:3],5h[8:1],
4h[16:3],4h[8:1],5h[16:3],5pp8qq5[4:7],
4h[16:3],4h[8:1],4h[16:3],{8}4qq1[4:3],4,
{16},,,,,,,,,,,,,,,,6h[8:1],
,,5,{8}6h[8:1],5,{16}6h[8:1],,,4,{8}6h[8:1],4,
{16}6h[8:1],,,4,{8}6h[8:1],4,{16}6,5,,5,{8}6h[8:1],4,
{16}3h[8:1],,,4,{8}3h[8:1],4,{16}3h[8:1],,,5,{8}3h[8:1],5,
{16}3h[8:1],,,5,{8}3h[8:1],5,{16}3,4,,4,{8}3h[8:1],5,
5h[8:1],{16}4,4,{8}5h[8:1],4,5h[8:1],{16}3,3,{8}5h[8:1],3,
5h[8:1],{16}3,3,{8}5h[8:1],3,{16}5,4,,5,{8}4,6/3,
2,2,7,7,{16}1,8,2,7,3,6,4,5,
{2}Ch[8:3],{32}8,7,6,5,4,3,2,1,8,7,6,5,4,3,2,1,
{16}8xV26[2:1],7x,6x,5x,{4}4x,4,4,
4V62[2:1],8,8,8,
{16}8xp2[2:1],7x,6x,5x,{4}4x,4,4,
4p6[2:1],8,8,8,
{16}8x-3-6[2:1],1x,2x,3x,{4}4x,4,4,
4-7-2[2:1],8,8,8,
{16}8x>3-6[2:1],1x,2x,3x,{4}4x,4,4,
4<7-2[2:1],8,8,8,
{16}1,8,2,7,{8}1h[8:1],{16}6,6,2,E6,,3,{8}B7,4,
{4}4xq1v3[2:1],8,{16}8,8,,,{8}8,8,
{16}8,1,7,2,{8}8h[8:1],{16}3,3,7,E4,,6,{8}B2,5,
{4}5xv7-1-6[2:1],4,{16}4,4,,,{8}4,4,
{16}4,5,3,6,{8}4h[8:1],{16}5,5,3,B5,,2,{8}E7,1,
{4}1xqq3[2:1],5,{16}5,5,,,{8}5,5,
{16}5,4,6,3,{8}5h[8:1],{16}4,4,6,B4,,7,{8}E3,8,
{4}8xpp6[2:1],4,{2}4h[8:3],
{16}5,4,5,4,{8}5h[8:1],4,{16}5,3,,5,{8}3,5/2,
5/2x-7[8:1],5,5,5,5/7x-3[8:1],5,5,5,
{16}4,5,4,5,{8}4h[8:1],5,{16}4,6,,4,{8}6,4/7,
4/7x-2[8:1],4,4,4,4/2x-6[8:1],4,4,4,
{16}5,5,5,5,{8}5,4,{16}5,3,,5,{8}2,5/1,
5/1x<6[8:1],5,5,5,5/6xq3[8:1],5,5,5,
{16}4,4,4,4,{8}4,5,{16}4,6,,4,{8}7,4/8,
4/8x>3[8:1],4,4,4,4/3xp6[8:1],4,4,4,
{4}5V71[8:3],{8}1,1V35[8:3],,,{4}5v7v1[8:7],
{8}2,2,2,2,3,3,3,3,
{4}4V28[8:3],{8}8,8V64[8:3],,,{4}4v2v8[8:7],
{8}7,7,7,7,6,6,6,6,
{4}5<1[8:3],{8}1,1p4[8:3],,,{4}4qq2<8[4:3],
{8}3,3,3,3,4,4,4,4,
{4}4>8[8:3],{8}8,8q5[8:3],,,{4}5pp7>1[4:3],
{8}6,6,6,6,5,5,5,5,
{1}Ch[1:1]/2xq5[2:3],
,Ch[1:1]/6p4[2:3],
,Ch[1:1]/2<6q4[2:3],
,Ch[1:1]/7<3q1[2:3],
{4},,,,8h[8:1]/B1,
8h[16:1]/B2,B3,B4,
7h[8:1]/B5,7h[16:1]/B6,B7,B8,
6h[8:1]/E2,6h[16:1]/E3,E4,E5,
5h[16:7]/E6,E7,E8,E1,
{8}A1/C,D2,A2,D3,A3,D4,A4,D5,
A5/C,D6,A6,D7,A7,D8,A8,D1,
{16}1,1,2,2,3,3,4,4,5,5,6,6,7,7,8,8,
1,1,1,1,1,1,1,1,{32}1,2,3,4,5,6,7,8,1,2,3,4,5,6,7,8,
{8}5/1b-6[8:1],4,{16}1-3[8:1],7,,7,{8}1-5[8:1],5,1,{16}6,6,
{8}2,3/7,{16}8-6[8:1],5,,5,{8}8-4[8:1],3,{16}8<5[8:1],5,,5,
{8}8,2,{16}1>4[8:1],4,,4,{8}1,7,8h[8:1],{16}5,5,
7,7,5,6,4,4,5,3,6,6,4,4,5,5,3,3,
{8}6-1[8:1],2/5,{16}6-3[8:1],4,,4,{8}6<1[8:1],2,6,{16}4,4,
{8}7,2/6,{16}1-3[8:1],4,,4,{8}1-5[8:1],6,{16}1>4[8:1],4,,4,
{8}1,7,{16}8<5[8:1],5,,5,{8}8,2,1h[8:1],{16}4,4,
1,4,2,5,3,6,4,7,5,8,5,8,5x/8x,7x/4x,6x/3x,5x/2x,
{8}4x/1x-6[8:1],5,{16}1-3[8:1],4,,4,{8}1-5[8:1],5,1,{16}6,6,
{8}2/7,7,{16}7-4[8:1],5,,5,{8}7-1[8:1],2,{16}7-4[8:1],3,,3,
{8}7,2,{16}2-5[8:1],4,,4,{8}2<7[8:1],6,2,{16}5,5,
7,5,8,5,1,5,2,5,3,5,3,5,3,5,3,5,
{8}3-5[8:1],6,{16}3>8[8:1],7,,7,{8}3v6[8:1],6,3,{16}5,5,
{8}4/8,1,{16}1>4[8:1],7,,7,{8}1-6[8:1],6,{16}1v4-2[16:3],5,,5,
{8}1,7,{16}8v5-7[16:3],1,,1,{8}8,2,1>4[8:1],{16}8,8,
{8}1<6[8:1],6,{16}1-5[8:1],5,,5,{8}1w5[8:1],7,{4}1,
{8}8b-6[8:1],1,2-4[8:1],1,8-6[8:1],1,2-4[8:1],1,
8<6[8:1],1,2>4[8:1],1,8-6>5[8:1],1,2-4<5[8:1],1,
7-5[8:1],8,1-3[8:1],8,7-5[8:1],8,1-3[8:1],8,
7<5[8:1],8,1>3[8:1],8,7-5>4[8:1],8,1-3<4[8:1],8,
6-8[8:1],7,6/5-1[8:1],4,5/6-8[8:1],7,6/5-1[8:1],4,
5/8-4[8:1],7,8/2-6[8:1],3,2/5-8[8:1],4,5/1-4[8:1],2,
1-6[8:1],8,1-3[8:1],2,1-7[8:1],8,1>4[8:1],2,
1<6[8:1],8,1,2,{32}1,2,3,4,5,6,7,8,1,2,3,4,5,6,7,8,
{8}1bx-5[8:1],8,{16}1-3[8:1],7,,7,{8}1-4[8:1],6,1-5[8:1],{16}7,7,
{8}1-3[8:1],8,{16}1-4[8:1],7,,7,{8}1-5[8:1],6,{16}1,7,,7,
{8}8x-4[8:1],1,{16}8-6[8:1],2,,2,{8}8-5[8:1],3,{16}8-4[8:1],2,,2,
{8}8-6[8:1],1,8-5[8:1],{16}2,2,{8}8-4[8:1],3,8,{16}2,2,
{8}2-4[8:1],1,{16}2-5[8:1],8,,8,{8}2-6[8:1],7,2,{16}8,8,
{8}7-5[8:1],8,{16}7-4[8:1],1,,1,{8}7-3[8:1],2,{16}7,1,,1,
{8}2,2,3,3,4,4,5,5,
6/4,6/4,{16}3/7,7/3,,2x/8x,2x/8x,8x/2x,2x/8x,8x/2x,1x,1x,1x,1x,
1,8,2,7,{8}1h[8:1],{16}6,6,2,E6,,3,{8}B7,4,
{4}4-1-3[2:1],5,{16}5,5,,,{8}5,5,
{16}5,4,6,3,{8}5h[8:1],{16}2,2,6,E2,,7,{8}B3,8,
{4}8-4-7[2:1],1,{16}1,1,,,{8}1,1,
{16}1,8,2,7,{8}1h[8:1],{16}8,8,2,B8,,3,{8}E7,4,
{4}4V62[2:1],8,{16}8,8,,,{8}8,8,
{16}8,1,7,2,{8}8h[8:1],{16}1,1,7,B1,,6,{8}E3,5,
{4}5V38[2:1],1,{16}1,1,,,{8}1,1,
{4}1h[4:1],8,1h[4:1],8,
1h[4:1],8,{16}1,8,,1,{8}8,1,
{4}8h[4:1],1,8h[4:1],1,
8h[4:1],1,{16}8,1,,8,{8}1,8,
1h[8:1],8,1h[8:1],8,1h[8:1],8,1h[8:1],8,
1h[8:1],8,1h[8:1],8,{16}1,8,,8,{8}1,{16}8,1,
{8}8h[8:1],1,8h[8:1],1,8h[8:1],1,8h[8:1],1,
1/8,8,1/8,1,8/1,1/8,8/1,1/8,
{1}1/8w4[4:3],
E
