&title=Rusty Sky
&artist=Matryoshka
&first=0
&des=Ragna
&clock_count=4
&lv_5=13+
&inote_5=(31.5)
{1},{32}4>5[64:11]*qq5[64:11],,,,,,,,4pp2[64:11]*<2[64:11],,,,,,,,4qq7[64:11],,,,,,,,,,,,,,,,8q1[64:11]*<1[64:11],
,,,,,,,8p6[64:11]*>6[64:11],,,,,,,,8q3[64:11],,,,,,,,,,,,,,,,4pp3[32:5],
,,,,,5-1[64:3],,4pp2[32:5],,,,,,5v8[64:3],,4pp1[32:5],,,,,,5,,4,,,,8,,,,8pp6[32:5],
,,,,,1v4[64:3],,8pp5[32:5],,,,,,1-6[64:3],,8pp4[32:5],,,,,,1,,8,,,,,,,,6V48[64:5]/2V48[64:5],
,,,3V51[64:5]/7V51[64:5],,,,6/2,,,,7/3,,,,3V14[64:5]/7V16[64:5],,,,5s1[32:5],,,,3/7,,,,5,,4,
,4pp1[32:5],,,,,,5-2[64:3],,4pp8[32:5],,,,,,5-1[64:3],,4pp7[32:5],,,,,,5,,4,,,,,,,,1q2[64:9],
,,,,,1-4[64:3],,1q3[64:9],,,,,,1-6[64:3],,1q4[64:9],,,,,,1,,1,,,,5,,,,5p4[64:9],
,,,,,5-2[64:3],,5p3[64:9],,,,,,5-8[64:3],,5p2[64:9],,,,,,5,,5,,,,,,,,1q4[16:3]/8p5[16:3],
,,,,,,,,,,,,,,,4<4[16:3]/5>5[16:3],,,,,,,,5s1[16:1]/4z8[16:1],,,,,,,,5b/4b,
,,,2V86[64:5]/8V24[64:5],,,,6V42[64:5]/4V68[64:5],,,,8/2,,,,4/6,,,,7V14[64:5]/1V74[64:5],,,,3V58[64:5]/5V38[64:5],,,,1/7,,,,5/3,
,,,2V84[64:5]/8V26[64:5],,,,6V48[64:5]/4V62[64:5],,,,8/2,,,,4/6,,,,7V16[64:5]/1V72[64:5],,,,3V52[64:5]/5V36[64:5],,,,1/7,,,,5/3,
,,,6V82[64:5]/1V75[64:5],,,,2V46[64:5]/5V31[64:5],,,,6/1,,,,2/5,,,,7V58[64:5]/2V41[64:5],,,,6V85[64:5]/3V14[64:5],,,,7/2,,,,6/3,
,,,7V14[64:5]/4V27[64:5],,,,3V58[64:5]/8V63[64:5],,,,7/4,,,,3/8,,,,7V15[64:5]/2V84[64:5],,,,3<3[4:1]/6>6[4:1],,,,7/2,,,,3qq6[16:3]/6pp3[16:3],
,,,,,,,,,,,,,,,4w8[4:1]/5w1[4:1],{1},
E
