&title=Treasure☆
&artist=島村卯月,渋谷凛,城ヶ崎美嘉,本田未央,多田李衣菜
&first=0.5
&des=Ragna
&wholebpm=128
&demo_seek=80.9
&demo_len=31.7
&des_5=Ragna
&lv_5=12+
&inote_5=(128){4},{2}8h[2:1]/1,7h[2:1],6<3[32:23],,1h[2:1],2h[2:1],3q6[32:23],8,7h[2:1],6h[2:1],5p4[32:23],1,{4}3h[4:1],2h[4:1],1h[4:1],8h[4:1],7h[4:1],6h[4:1],5h[4:1],4h[4:1],3bw7[4:5],,,,,,,,
{12}18,,2,7,,,56,,7,4,,,34,,2,5,,,18,,7,2,,,
{4}3^6[16:3]/6,,7^2[16:3],,3^6[16:3],6>8[16:7],,,7h[2:1],,{6}6,65,54,{4}4qq5[2:1]/3>5[2:1],,,,
6^3[16:3]/3,,2^7[16:3],,6^3[16:3],3<1[16:7],,,2h[2:1],,{6}3,34,45,{4}5pp4[2:1]/6<4[2:1],,,,
3<3[32:47]/6h[4:1],,8h[4:1],,5h[4:3],,,,3h[4:1]/6>6[32:47],,1h[4:1],,4h[4:3],,,,3qq6[2:1]/6,,6<3[8:3],,5h[4:1],4h[4:1],3h[4:1],2h[4:1],1>8[2:1],,,,
{12}18,,2,4,,7,5,,1,8,,5,4,,1,8,3,6,{4}4b-6[8:1]*-2[8:1],,
{6}1pp4[8:5]/8,,,7,7,7,6z2[2:1],,,3,,,1/8qq5[8:5],,,2,2,2,3>6[2:1],,,,,,1pp5[8:5]/8,,,7,7,7,6s2[2:1],,,3,,,1/8qq4[8:5],,,2,2,2,3>7[4:1],,,6q3[4:1],,,4b>5[8:11],,,,,,,,,,,,
{12}3,4,3,4,,,2,1,2,1,,,6,5,6,5,,,7,8,7,8,6,1,25,,34,,2,5,16,,78,,1,6,2,4,3,7,5,6,1,3,2,8,6,7,
{2}1bpp4[2:1],4qq6[2:1],6<3[16:5]*q3[16:5],{12},,,2,4,1,{2}5pp8[2:1],8qq2[2:1],2>7[2:1]*p7[2:1],,{4}8^5[8:1],8q4[4:1]*>4[4:1],,,1^4[8:1],1p5[4:1]*<5[4:1],,,3h[4:1],2h[4:1],1h[4:1],8h[4:1],7<1[16:5],,8,{12}7,2,6,{2}3bqq6[2:1],6pp3[2:1],3p5[16:5]*>5[16:5],{12},,,4,6,3,{2}7qq2[2:1],2pp7[2:1],7q1[2:1]*<1[2:1],,{4}8^5[8:1]*-5[8:1],8q5[4:1]*>5[4:1],,,1^4[8:1]*-4[8:1],1p4[4:1]*<4[4:1],,,3h[4:1],2h[4:1],1h[4:1],8h[4:1],7h[4:1],6h[4:1],5h[4:1],4h[4:1],3bw7[4:5],,,,,,,,{12}18,,27,3,4,2,18,,27,6,5,7,18,,27,45,45,45,4b/5b,E
