&title=Amber Light
&artist=中鶴潤一
&first=0.46
&des=Ragna
&wholebpm=126
&demo_seek=8
&demo_len=15.3
&des_5=Ragna
&lv_5=13+
&inote_5=(126){16}
4/5h[16:3],,,{32}6,5,4,3,{16},,2h[8:3]/6h[8:3],
,,,,,,,7h[2:1]/4V62[16:3],
,,,,,,,,
,1h[4:1]/6h[4:1],,,,,,8V61[4:1]/2h[16:7],
,,,,,,,,
3h[8:1],,,3bq5[8:3]/8h[16:9],,,,,
,,,,,,,,
7,7h[8:3],,4,,5,,4,
4,,5,,3,4,,
2b/6b,,3,5,4,6,5,,
7b/3b,,6,4,5,3,4,,
2b/6b,,3,5,4,6,5,,
7b/3b,,6,4,5,3,4,,
1bz5[32:7]/6bs2[32:7],,,,,,,,
,,3,4,3,5h[8:1],,,
6-3[8:1]/4-7[8:1],,7<1[8:3]/3<1[8:3],,,,,,
,,,,,,,,
7b/3b,,6,4,5,3,4,,
2b/6b,,3,5,4,6,5,,
7b/3b,,6,4,5,3,4,,
2b/6b,,3,5,4,6,5,,
8b<3[4:1]/3b<8[4:1],,,,8pp5[8:3]/3qq6[8:3],,,,
,,,,,,,,
,,3,6,4pp4[4:1],5,3,7,
4b>8[32:5],,,,,,,,
6h[8:1],,5,5h[8:1],,7,7,,
3h[8:1],,4,4h[8:1],,2,2,,
6h[8:1],,5,5h[8:1],,8,8,,
3h[8:1],,4,4h[8:1],,1,1,,
7h[8:1],,5,5h[8:1],,6,6,,
2h[8:1],,4,4h[8:1],,3,3,,
8h[8:1],,5,5,6,2,4,3,
8b,,,,,3,3h[8:5],,
4,,5,,7,,6,,
4h[16:3],,,2-6[8:1],,,,7,
7h[16:3],,,5^2[8:1],,,,,
,,8,8,1,7,2,8,
1h[16:3],,,6-4[12:1],,,,,
,3,3,5,4,6,3,5,
4h[16:3],,,7>4[64:13]*q5[64:13],,,,,
,,,,,6,6h[8:5],,
5,,3,,4,,2,,
3h[16:3],,,7-4[8:1],,,,1,
1h[16:3],,,3^6[8:1],,,,,
,2h[8:1],,7h[8:1],,3,6,4,
5h[16:3],,,1p6[16:5],,,,7h[2:1],
,,,,,,,5<4[16:9],
,6,6h[8:5],,,,,,
,,,,,,,,
3qq6[2:1]/4h[8:1],,,5h[8:1],,,6h[8:1],,
,7h[8:1],,,8,,,,
7pp4[2:1]/6h[8:1],,,5h[8:1],,,4h[8:1],,
,3h[8:1],,,2,,,,
3pp6[2:1]/4h[8:1],,,5h[8:1],,,6h[8:1],,
,7h[8:1],,,8,,,,
7qq4[2:1]/6h[8:1],,,5h[8:1],,,4h[8:1],,
,3h[8:1],,,2,,,,
3V15[16:5]/4h[8:1],,,5h[8:1],,,6h[8:1],,
,7h[8:1],,,84,,,,
7V15[16:5]/6h[8:1],,,5h[8:1],,,4h[8:1],,
,3h[8:1],,,26,,,,
3V52[16:5]/4h[8:1],,,5h[8:1],,,6h[8:1],,
,7h[8:1],,,81,,,,
7V58[16:5]/6h[8:1],,,5h[8:1],,,4h[8:1],,
,3h[8:1],,,21,,,,
5h[8:1],,4,,7h[16:3],5,,5,
6h[8:1],,3,,7h[16:3],5,,5,
6h[8:1],,2,,8h[16:3],4,,4,
6h[8:1],,5,,7h[16:3],3,,3,
5h[8:1],,2,,6h[16:3],3,,3,
4h[8:1],,1,,6h[16:3],3,,3,
5h[8:1],,2,,7h[16:3],4,,4,
6h[8:1],,3,,8h[16:3],5,,5,
1b>8[4:1],,,,,,,,
,,2,1,3,8,4,7,
5b<4[4:1],,,,,,,,
,,7,5,6,2,4,3,
8b>7[16:7]*<1[16:7],,,,,,,,
,,,,,,,,
6h[8:1]/2b,,,4h[8:1]/5b,,,3h[8:1]/7b,,
,4b/5h[8:1],,,6b/1h[4:1],,,,
8b,,2,4,3,5,4,6,
,,8b/3b,,7,5,6,4,
5,3,,,1b/6b,,2,4,
3,5,4,,,7b/3h[8:1],,,
1b/5h[8:1],,,2,4,3,6,4,
5,2,7,4,8,2,6,3,
8bqq1[16:7]*<1[16:7],,,,,,,,
,,,,,,,,
8b/3b,,7,5,6,4,,7b/2b,
,4,5,3,,1b/6b,,,
,,2,5,4>5[4:1],7,2,5,
,,,,,,,,
2b/7b,,,,,{24}2,3,4,56,7,8,
2,3,4,56,7,8,2,3,4,56,7,8,
2-6[8:1],3,4,5pp2[16:5]/6qq1[16:5],7,8,{16}
2b,,,
,,,,,,,,
2b/8b,,7,4,5,2,4,,
1b/7b,,2,5,4,7,5,,
2b/8b,,7,4,5,2,4,,
1b/7b,,2,5,4,7,5,,
8b/3b,,,,6,6,4,4,5,5,
2,2,5,4,6,3,7,{24}
1,2,3,8,7,6,2,3,4,7,6,5,{16}
2,4,3,7,5,6,,
1b/7b,,2,5,4,7,5,,
2b/8b,,7,4,5,2,4,,
1b/7b,,2,5,4,7,5,,
2b/8b,,7,4,5,2,4,,
1b/6b,,,,,4V25[4:1]/5V74[4:1],,,
,4^1[8:1]/5^8[8:1],,,,,,,
,,2,6,3,8,1p2[32:5],7,
3,5,1,,,,,,
1b/8b,,2,6,4,7,2,
1b/8b,,7,3,5,2,7,
1b/8b,,2,6,5,7,2,
1b/8b,,7,3,4,2,8,1,
2b/7b,,,,8b/2h[8:1],,,1b/6h[8:1],
,,7b/3h[8:1],,,2b/5h[8:1],,,
4b^1[2:1]/5bpp8[16:17],,,,,,,,
,,,,,,,,
,1,,1,,1h[16:3],,,
,,8,4,6pp4[32:9]*pp2[32:9],2,5,8,
6b,,,,,,,,
,,,,,,,,
E
