&title=海色
&artist=AKINO from bless4/TVアニメ「艦隊これくしょん -艦これ-」OPテーマ
&first=1.025
&des=Ragna
&wholebpm=195
&demo_seek=55.6
&demo_len=29.4
&des_5=Ragna
&lv_5=13
&inote_5=(195){16}2,3,{1}4-1[2:3],,8w4[16:7]*w4[16:7],{8}
3h,4h,5h,6h,5h,4h,3h,4h,5h,6h,5h,4h,36,3-8[8:1]/6-1[8:1],,
{1}3b>5[4:13]/6b<4[4:13],,,,{8}4-1[8:1],,5,5,,8,2,5,
4,7,1,5,4-1[8:1]*-7[8:1],,4,,2,8,4,5,1,7,4-8[8:1],,
4,{16}7,6,5,4,3,2,1,8,{8}4b,4b,{4},
3qq5[8:11]/6h[8:1],6h[8:1],6h[8:1],6h[8:1],
6h[8:1],6h[8:1],6h[8:1],6h[8:1],
7pp5[8:11]/4h[8:1],4h[8:1],4h[8:1],4h[8:1],
4h[8:1],4h[8:1],4h[8:1],4h[8:1],
3qq8[8:11]/6h[8:1],6h[8:1],6h[8:1],6h[8:1],
6h[8:1],6h[8:1],6h[8:1],6h[8:1],
5V37[2:1]/1h[8:1],1h[8:1],1h[8:1],1h[8:1],{24}
1,2h[8:1],,,8,7h[8:1],,,2,3h[8:1],,,7,6h[8:1],,,3,4h[8:1],,,6,5h[8:1],,,
{8}1b,,6h[4:1],,3h[4:1],,8,4^1[8:1],,4^7[8:1],,4-8[8:1],,4,,
5^8[8:1],,5^2[8:1],,5-1[8:1],,5p4[8:3],,5,,,,,3-1[8:1]/5,,7,,
6-8[8:1]/4,,2,,3-8[8:1]/5,,7,,6-1[8:1]/4,,2,,4-8[8:1]/5,,7,,
5b<4[16:7]/4b,,,,,,,1h[4:1],,6h[4:1],,5^2[8:1],,8,8h[4:1],,
{1}1-5[4:7],,6^3[4:3],2^7[4:3],5-1[4:7],,3-6[2:1],{8}18,,,27,,,36,,
4/5^8[2:1],,4,,4,,4,,47,,46,,45,2,45,7,
4^1[2:1]/5,,5,,5,,5,,52,,53,,54,7,54,2,
74,6,25,3,75,6,24,3,85,6,14,3,45,45,,
{16}1,8,1,8,1,8,1,8,1,8,1,8,1,8,1,8,{8}1b,,,,,,,,
6,6-1[8:1],,4,4-8[8:1],,7<3[4:1],,3>7[4:1],,7^5[8:1],,4,4h[16:3],
{16},3h[16:3],{8},2h[8:1],1^6[8:1],,4,4-8[8:1],,5<4[8:3],,1b,,,,,
1-4[8:1]/5-8[8:1],,1b/5b,,,48,37,26,1-5[8:1]/5,,6,7,8-3[8:1],,
4,4V63[4:1],,,,7h[4:1],,2,1-4[8:1]/8-5[8:1],,1b/8b,,36,27,
1-4[8:1]/8-5[8:1],,1b/8b,,36,36,,
2,2^5[8:1],,8,8-4[8:1],,3V17[4:1],,7V53[4:1],,3-1[8:1],,8,8h[16:3],
{16},7h[16:3],{8},6h[8:1],5^2[8:1],,8,8-4[8:1],,1>8[8:3],,5b,,,,,
1^4[8:1]/5^8[8:1],,1b/5b,,,48,37,26,5-1[8:1]/1,,3^8[8:1],,7^4[8:1],,
1,1s5[4:1],,,,6h[4:1],,3,4-1[8:1]/5-8[8:1],,4b/5b,,27,36,
4-1[8:1]/5-8[8:1],,4b/5b,,27,27,,,,,4^1[8:1],,5h[4:1],,8,7,1h[4:1]/6h[4:1],,,
8h[4:1]/3h[4:1],,,4v1[8:1]/6v1[8:1],,46,,,2h[4:1]/8h[4:1],,,45,,6h,8h,1h,3h,
45,4-8[8:1]/5-1[8:1],,{1}4b>5[4:13]/5b<4[4:13],,,,{8}
4-8[8:1],,5,6,7,1-5[8:1],8-4[8:1],1,8,{16}3,2,1,8,7,6,5,4,{8}8b,8b,
{1},E
