&title=Howling
&artist=ASCA/TVアニメ「魔法科高校の劣等生 来訪者編」OPテーマ
&first=3.41
&des=Ragna
&wholebpm=143
&demo_seek=53.9
&demo_len=33
&des_5=Ragna
&lv_5=13
&inote_5=(143)
{8}3,4,3,{16}4,3h[16:7],{8},5,,6,
5,6,5,{16}6,5h[16:7],{8},7,8,1,
,8,17,26,3/5h[16:3],{16},6,{8},74,
,{16}2,8,{8}1,82,37,{16},4h[16:3]/6,{8},3qq6[2:1],
{1}3,
27,
{16}7h[8:1]/5h[16:1],,,8h[8:1]/6h[16:1],,,7h[8:1]/5h[16:1],,,6h[8:1]/4h[16:1],,,17,,17,,
2h[8:1]/4h[16:1],,,1h[8:1]/3h[16:1],,,2h[8:1]/4h[16:1],,,3h[8:1]/5h[16:1],,,82,,82,,
7h[8:1],5h[16:1],,6h[8:1],4h[16:1],,5h[8:1],3h[16:1],,4h[8:1],2h[16:1],,17,,17,,
2h[8:1],4h[16:1],,3h[8:1],5h[16:1],,{4}4V28[8:1]*V68[8:1],,{8},
1b-5[8:1]/7b,{16},5-2[8:1],{8},8,,1,28,37,
4/6-2[8:1],{16},2-7[8:1],{8},4,,5,46,37,
8-4[8:1]/2,{16},4-7[8:1],{8},1,,8,17,26,
5/3-7[8:1],{16},7-2[8:1],{8},5,,4,53,26,
1h[8:15]/7,8,,6,,7,,5,
,8,,4,,6,,{16}8,,
1h[8:1]/7h[8:1],,,2h[8:1]/6h[8:1],,,3-8[8:1]/5-8[8:1],,,,,,,,1,,
8h[8:1]/2h[8:1],,,7h[8:1]/3h[8:1],{8},4-1[8:1]/6,,5,6,7,
8h[8:15]/2,3,,1,,4,,6,
,3,,1,,4,,{16}1,,
8h[8:1]/2h[8:1],,,2h[8:1]/4h[8:1],,,4-7[8:1]/5-1[8:1],,,,,,,,8,,
1h[8:1]/7h[8:1],,,7h[8:1]/5h[8:1],,,4z8[8:1]/5s1[8:1],,,,,,,,,,
1h[8:3]/8,,,7,,,6,,4/5h[8:3],,,3,,,2,,
1h[16:3]/8,,,7,,,63,,4b-8[8:1]/5bs1[8:1],,,,,,,,
8h[8:3]/1,,,2,,,3,,5/4h[8:3],,,6,,,7,,
8h[16:3]/1,,,2,,,36,,4bs8[8:1]/5b-1[8:1],,,,,,,,
1/8V64[16:3],,,4-8[8:1],,,3,,,,,,18,,27,,
3V16[16:3]/6,,,6-3[8:1],,,5,,,,,,54,,36,,
{8}27,2,28,2,25,2,21,2,
24,35,46,57,{16}1,8,1,8,1,8,1,27,
{1},
{8}1b/8b,2-6[8:1]/7,6,{16}5,5h[16:3],{8},4-1[8:1],6,4,
7^2[8:1],3,7,{16}4,4h[16:3],{8},5-1[8:1],3,5,
,8,17,26,3v6[16:1]/5,{16},5-8[16:1]/3,{8},5,
,1,28,37,4/6v3[16:1],{16},4-1[16:1]/6,{8},4,
8bpp4[16:4]*qq4[16:4],,,,,,2-5[8:1]/6-1[8:1],37,
,,3/7-3[8:1],26,,1-5[8:1],,18,
7-3[8:1],,74,2h[4:1],,7,1b/8b,,
27,27,36,36,{16}4,5,4,5,4,5,4,5,
{8}3b-8[8:1],3,{16}6,6,,7,{8}1,8/2^5[8:1],1,28,
7-4[8:1],7,{16}2,2,,3,{8}5,4-8[8:1],6,4,
,1,28,37,4/6q3[16:1],{16},4^1[16:1]/6,{8},4,
,{16}8,1,{8}7,26,3p6[16:1]/5,{16},5^8[16:1]/3,{8},5,
1bpp5[16:4]*qq5[16:4],,,,,,7^4[8:1]/3^8[8:1],26,
,,6/2q6[8:1],37,,8,7,6,
5<2[4:1],,2<4[8:3],3h[8:5],,,,,
,,18,,2h[16:3]/7,{16},6h[16:3],{8},4h[2:1],
5,5,5,5,36,36,27,27,
1bpp4[8:3]/8bqq5[8:3],,,,,,,,
3-8[8:1]/6,{16},8q5[8:1],{8},7,,6,75,84,
1-6[8:1]/3,{16},6q4[8:1],{8},2,,8,26,84,E
