&title=Vacuum Cleaner
&artist=Doin
&first=-0.05
&des=WINDPHAZZ
&lv_6=27
&inote_6=(222.22){8},,,,,,,,,,,,,,
,,,,,,,,
,,,,,,,,
{32}8b-5-2<3[2:7]*-5-2[32:45]/1b,72,63,54,{8},,,,,,,
,,,,,,,,
,,,,,,,,
,,,,,,,,
1x/8x,,1x/8x/7x,,1x/8x/7x/6x,,1x/8x/7x/6x/5x,,
1x/8x/7x/6x/5x/4x,,1x/8x/7x/6x/5x/4x/3x,,1x/8x/7x/6x/5x/4x/3x/2x,,{32}8-4^5[16:1]*-4^3[16:1]/4h[4:1],7,6,5,4,3,2,1,
{16}8b,,,,,,,,2,,,4h[16:5],,,,,
3x/4x,,,,,,6x/5x,,,,,,8h[4:1]/1h[4:1],,,,
7x/2x,,,,,,,,7,,,5h[16:5],,,,,
7,,,7,,,2,,2,,8,,8,,8,1,
7x/2x,,,,,,,,6h[8:1],,5,,5,4,5,,
6x/5x,,,,,,3x/4x,,,,,,4,5,4,,
3xh[16:1]/4x,,,,3h[16:1],,3h[16:1],,7,2,7,2,8,1,8,1,
6,,,6,,,6,,3,,2,,1,8,1,8,
7xb/2xb,,,,,,,,3,,,1h[16:5],,,,,
2x/1x,,,,,,7x/8x,,,,,,5h[4:1]/4h[4:1],,,,
6x/3x,,,,,,,,6,,,8h[16:5],,,,,
6,,,6,,,3,,3,,5,,5,,5,4,
6x/3x,,,,,,,,7h[8:1],,8,,8,1,8,,
7x/8x,,,,,,2x/1x,,,,,,1,8,1,,
2xh[16:1]/1x,,,,2h[16:1],,2h[16:1],,6,3,6,3,5,4,5,4,
5,6,7,8,6,7,8,1,7,8,1,2,8,1,2,3,
{8}B8/B1/4b,,B3/B4,,B5/B6,,E2/B2,E5/D5,
E8/B7,,E6/B5,,B4/E4,,E1/D1,E5/D5,
,,A7/E8,B8/B1,E2/A2,,A6/E6,B5/B4,
E4/A3,,B7/B6,,B3/B2,,A1/A8,A5/A4,
,E7/E3,,A2/A1,A8/A7,,A3/A4,B4/B5,
A5/A6,,B2/B1,,B8/B7,,B3/B4,B5/B6,
8x/1x,,8x/1x/2x,,8x/1x/2x/3x,,8x/1x/2x/3x/4x,,
8x/1x/2x/3x/4x/5x,,8x/1x/2x/3x/4x/5x/6x,,8x/1x/2x/3x/4x/5x/6x/7x,,{32}1-5^4[16:1]*-5^6[16:1]/5h[4:1],2,3,4,5,6,7,8,
{16}1b,,,,,,8,,,,5x/4x/3x,,,,,,
7,,,,7,,7,,2x/3x/4x,,,,,,6,,
1x/2x/3x,,,,,,5,,,,5,,5,,5,,
5,5,5,5,6x/5x/4x,,,,8x/1x/2x,,,,,,4,4,
5bx/4bx/3bx,,,,,,3,,,,6x/7x/8x,,,,,,
2x/3x/4x,,,,5x/6x/7x,,,,1x/2x/3x,,,,8x/7x/6x,,,,
2,,,,2,,2,,7x/6x/5x,,,,,,1,,
6x/5x/4x,,,,,,8,,,,8,1,7,2,6,3,
6bx/5bx/4bx/3bx,,,,,,,,2,1,2,1,3,4,3,4,
5x/4x/3x/2x,,,,,,7x/8x/1x/2x,,,,,,,,,,
1h[16:1],,,,1h[16:1],,1h[16:1],,7,8,7,8,6,5,6,5,
7x/6x/5x/4x,,,,3h[4:3],,,,2,1,8,7,6h[4:1],,,,
6bx/5bx/4bx/3bx,,,,7,6,7,6,2,3,2,3,1x/2x/3x/4x,,,,
8x/7x/6x/5x,,,,,,4,,,,8h[16:1],,8h[16:1],,,,
{8}1b/2h[2:3],,3h[4:5],,4h[8:9],,5h[8:8],,
6h[8:7],,7h[8:5],,,,,,
1b-5[16:1]/2b-5[16:1]/3b-5[16:1],,1/2/3,,8-4[16:1]/7-4[16:1]/6-4[16:1],,8/7/6,,
5-1[16:1]/6-1[16:1]/7-1[16:1],,5/6/7,,4-8[16:1]/3-8[16:1]/2-8[16:1],,4/3/2,,
1-5[16:1]/2-5[16:1]/3-5[16:1],,1/2/3,,8-4[16:1]/7-4[16:1]/6-4[16:1],,8/7/6,,
{16}1,,8,1,,8,1,,8,,1,,1,,1,1,
{8}8/7/6,,8/1/2,,1-5[16:1]*-4[16:1]*-6[16:1]*-3[16:1]*-7[16:1],82,,,
1/8/7,,,3/2/1,,,7/8/1,,
8-4[16:1]*-5[16:1]*-3[16:1]*-6[16:1]*-2[16:1],71,,,2/1/8,,,5/6/7,
{16}8,,1,8,,1,8,,1,,8,,1,8,1,8,Ch[8:3],,,,,,
5,4,5,4,6,4,6,4,7x,3,7,3,8,3,8,3,
1,3,1,3,8,3,8,3,7x,2,7,2,6,2,6,2,
5,2,5,2,6,2,6,2,7x,1,7,1,8,1,8,1,
2,1,2,1,3,1,3,1,4x,2,5,2,Ch[4:1],,,,
4,5,4,5,3,5,3,5,2x,6,2,6,1,6,1,6,
8,6,8,6,1,6,1,6,2x,7,2,7,3,7,3,7,
4,7,4,7,3,7,3,7,2x,8,2,8,1V35[16:1],8,1,8,
1V75[16:1]*<5[16:1],,,,1V35[16:1]*>5[16:1]*q5[16:1],,,,1V75[16:1]*<5[16:1]*p5[16:1]*w5[16:1],,,,1b,,,,
2,1,2,1,3,,3,,7,8,7,8,6,,6,,
3,4,3,4,2,,2,,6,5,6,5,7,,7,,
2,3,2,3,1,,1,,7,6,7,6,8,,8,,
3,2,3,2,4,,4,,6,7,6,7,5w1[8:1],,5,,
,,,,6/5/4/3,,,,7,1,7,1,8,,8,,
2,4,2,4,3,,3,,7,5,7,5,6,,6,,
3,1,2,8,1,,1,,6,8,7,1,8V64[16:1],,8,,
8V24[16:1]*>4[16:1],,,,8V64[16:1]*<4[16:1]*p4[16:1],,,,8V24[16:1]*>4[16:1]*q4[16:1]*w4[16:1],,,,8,,,,
7,7,7,7,7,7,7,7,8,8,8,8,8,8,8,8,
1,1,1,1,1,1,2,2,2,2,2,2,2,2,2,2,
3,3,3,3,3,3,3,3,4,4,4,4,4,4,4,4,
5,5,5,5,5,5,6,6,6,6,6,6,6,6,Chf[8:3],,,,,,
{8}B8/B7/B6/B5/B4/B3/B2/B1,,,,,,
,,,,,,,,
7h[2:3],,6h[4:5],,5h[8:9],,4h[8:8],,
3h[8:7],,2h[8:5],,,,,,
8b-4[8:1],7,6,5,3-7[8:1],2,1,8,
6-2[8:1],5,4,3,1-5[8:1],8,7,6,
4p7[8:1],3,2,1,8p3[8:1],7,6,5,
5q2[8:1],6,7,8,1q6[8:1],2,3,4,
5^2[8:1],6,7,8^5[8:1],1,2,3-8[8:1],4,
5,6-3[8:1],7,8,1v6[8:1],2,3,4v1[8:1],
5,6,7qq6[8:1],8,1,2qq1[8:1],3,4,
5s1[8:1],6,7,8z4[8:1],1,2,3-7[8:1],4,
5-1[16:1],,5>5[1:2]*>5>6[4:15]/Ch[4:1],,
{4}5h[4:31],,,,,,,,,,,,,,,,
{8}54,,,7,65,7,,,
3,45,3,,{16}8,,8,7,65,,7,,
1,2,3,4,5,6,7,8,1,2,3,4,5,6,7,8,
{24}1,2,3,4,5,6,7,8,1,2,3,4,{32}5,6,7,8,1,2,3,4,5/B5,6/B6,7/B7,8/B8,1/B1,2/B2,3/B3,4/B4,
{8}5b/A5f/B5/C,,7,3,4x/5x/6x,,12,,
78,,2,6,3x/4x/5x,,78,,
65,,2,4,7x/6x/5x,,12,,
34,,7,5,2x/3x/4x,,Ch[4:1],,
4,,7,8,6x/5x/1x/2x,,34,,
65,,2,1,8x/7x/3x/4x,,65,,
71,,8,4,5x/6x/3x/2x,,34,,
28,,1,5,7x/6x/4x/3x,,Ch[4:1],,
8,,3,5,6x/7x/8x/1x/2x,,24,,
75,,6,4,7x/8x/1x/2x/3x,,86,,
12,,4,8,6x/5x/4x/3x/2x,,76,,
23,,5,1,7x/6x/5x/4x/3x,,Ch[4:1],,
1,,6,5,7x/8x/1x/2x/3x/4x,,62,,
48,,3,4,5x/6x/7x/8x/1x/2x,,73,,
15,,8,1,7x/6x/5x/4x/3x/2x,,63,,
{16}4,3,2,1,3,2,1,8,2,1,8,7,1,8,7,6,
{2}5bh[2:3]/7bh[2:3],,,{64}D8,D6,8,6,D1,D7,1,7,D2,D8,2,8,D3,D1,3,1,D4,D2,4,2,,,,,,,,,,,,,
{16}7/A7,8,6,1,7,,7,,2/A2,1,3,8,2,,2,,
6/A6,5,7,4,6,,6/A6,,3,4,2,5,3,,3,,
8/A8,1,8,7,8,,8,,2/A2,1,2,3,2,,2,,
6/A6,5,6,7,6,,6/A6,,4,5,4,3,4-8^1[16:1]*-8^7[16:1],,4,,
,,,,6/5/4/3/A5/D6/A6/A4/D4/A3/D5,,,,2/A2,6,4,6,2/A2,,2,,
8/A8,4,6,4,8/A8,,8,,1/A1,5,3,5,1/A1,,1,,
5/A5,3,7,1,5/A5,,5,,4/A4,6,2,8,4/A4,,4,,
7/A7,1,5,3,7/A7,,7,,2/A2,8,4,6,2h[4:1],,,,
8,3,1,2,8,3,7,4,6,3,5,2,6,1,7,8,
6,1,7,2,8,3,7,4,6,5,6,4,5,3,4,3,
7/8/A7/A8/D8/E8,4,5,4,2/1/A2/A1/D2/E2,4,5,4,6/7/A6/A7/D7/E7,4,5,4,3/2/A3/A2/D3/E3,4,5,4,
7/8/A7/A8/D8/E8,4,5,4,2/1/A2/A1/D2/E2,4,5,4,1/8/A1/A8/D1/E1,4,5,4,Ch[4:1],,,,
{16}2/3/D3,7/6/D7,2/3/D3,7/6/D7,2/3/D3,7/6/D7,2/3/D3,7/6/D7,1/2/D2,6/5/D6,1/2/D2,6/5/D6,1/2/D2,6/5/D6,1/2/D2,6/5/D6,
8/1/D1,5/4/D5,8/1/D1,5/4/D5,8/1/D1,5/4/D5,1/2/D2,6/5/D6,1/2/D2,6/5/D6,1/2/D2,6/5/D6,1/2/D2,6/5/D6,1/2/D2,6/5/D6,
2/3/D3,7/6/D7,2/3/D3,7/6/D7,2/3/D3,7/6/D7,2/3/D3,7/6/D7,4/3/D4,7/8/D8,4/3/D4,7/8/D8,4/3/D4,7/8/D8,4/3/D4,7/8/D8,
5/4/D5,8/1/D1,5/4/D5,8/1/D1,5/4/D5,8/1/D1,4/3/D4,7/8/D8,4/3/D4,7/8/D8,4/3/D4,7/8/D8,4/3/D4,7/8/D8,Ch[8:3],,,,,,
{16}6,5,7,3,4,2,7,8,6,2,1,3,
7,5,1,2,4,8,6,4,8,3,5,1,7,4,5,2,
1/8/A8/A1/D1/E1,7,6,5,4/1/8/A8/A1/D1/E1,2,3,4,5/1/8/A8/A1/D1/E1,7,6,5,4/1/8/A8/A1/D1/E1,2,3,4,
{64}1/A1,D2,2/A2,D3,3/A3,D4,4/A4,D5,8/A8,D1,1/A1,D2,2/A2,D3,3/A3,D4,7/A7,D8,8/A8,D1,1/A1,D2,2/A2,D3,6/A6,D7,7/A7,D8,8/A8,D1,1/A1,D2,5/A5,D6,6/A6,D7,7/A7,D8,8/A8,D1,4/A4,D5,5/A5,D6,6/A6,D7,7/A7,D8,3/A3,D4,4/A4,D5,5/A5,D6,6/A6,D7,2/A2,D3,3/A3,D4,4/A4,D5,5/A5,D6,
{2}2b/6b/A2/A6/B6/B7/B8/B1/B2/B3/B4/B5/C,{16}7b/A7f,1b/A1f,5b/A5f,3b/A3f,8b/A8f,2b/A2f,6b/A6f,4b/A4f,
{4}Chf[4:3],,,1bx/2bx/3bx/4bx/5bx/6bx/7bx/8bx/A1/A2/A3/A4/A5/A6/A7/A8/B1/B2/B3/B4/B5/B6/B7/B8/D1/D2/D3/D4/D5/D6/D7/D8/E1/E2/E3/E4/E5/E6/E7/E8,,,,,
,,,,,,,,
,,,,,,,,
,,,,,,,,
E
